<?xml version="1.0" standalone="no"?>
<!DOCTYPE svg PUBLIC "-//W3C//DTD SVG 1.1//EN" "http://www.w3.org/Graphics/SVG/1.1/DTD/svg11.dtd" >
<svg xmlns="http://www.w3.org/2000/svg" xmlns:xlink="http://www.w3.org/1999/xlink" version="1.1">
<metadata>
Created by FontForge 20170910 at Fri Aug 27 16:36:11 2010
 By Jimmy Wärting
Copyright (c) 2009 by The Entente (AS &#38; EH). All rights reserved.
</metadata>
<defs>
<font id="Apercu" horiz-adv-x="560" >
  <font-face 
    font-family="Apercu"
    font-weight="400"
    font-stretch="normal"
    units-per-em="1000"
    panose-1="2 0 5 6 4 0 0 2 0 4"
    ascent="800"
    descent="-200"
    x-height="504"
    cap-height="700"
    bbox="-85 -235 1200 949"
    underline-thickness="50"
    underline-position="-100"
    unicode-range="U+0020-FB02"
  />
<missing-glyph horiz-adv-x="621" 
d="M524 0h-427v700h427v-700zM440 76v548h-259v-548h259z" />
    <glyph glyph-name="uniFB01" unicode="fi" horiz-adv-x="544" 
d="M119 428h-72v76h72v16c0 60 19 106 56 139s84 49 139 49s98 -11 129 -33l-18 -72c-32 19 -69 29 -112 29c-69 0 -110 -38 -110 -111v-17h257v-504h-84v428h-173v-428h-84v428z" />
    <glyph glyph-name="uniFB02" unicode="fl" horiz-adv-x="589" 
d="M119 428h-72v76h72v26c0 58 17 102 52 132c35 31 80 46 133 46h201v-708h-84v632h-118c-60 0 -100 -36 -100 -101v-27h116v-76h-116v-428h-84v428z" />
    <glyph glyph-name=".notdef" horiz-adv-x="621" 
d="M524 0h-427v700h427v-700zM440 76v548h-259v-548h259z" />
    <glyph glyph-name="NULL" horiz-adv-x="0" 
 />
    <glyph glyph-name="CR.001" horiz-adv-x="333" 
 />
    <glyph glyph-name="space" unicode=" " horiz-adv-x="268" 
 />
    <glyph glyph-name="exclam" unicode="!" horiz-adv-x="345" 
d="M142 200l-24 500h114l-24 -500h-66zM105 65c0 40 30 71 70 71s70 -31 70 -71c0 -39 -30 -68 -70 -68s-70 29 -70 68z" />
    <glyph glyph-name="quotedbl" unicode="&#x22;" horiz-adv-x="441" 
d="M175 476h-62l-25 232h112zM328 476h-62l-25 232h112z" />
    <glyph glyph-name="numbersign" unicode="#" horiz-adv-x="722" 
d="M232 424h-120v68h134l43 208h73l-43 -208h142l42 208h73l-42 -208h116v-68h-130l-30 -148h120v-68h-134l-43 -208h-73l43 208h-142l-42 -208h-73l42 208h-116v68h130zM447 424h-142l-30 -148h142z" />
    <glyph glyph-name="dollar" unicode="$" horiz-adv-x="523" 
d="M440 596l-71 -46c-32 57 -64 75 -111 75c-48 0 -84 -41 -84 -88c0 -33 10 -57 41 -81c16 -11 29 -20 40 -26l54 -28c40 -20 59 -30 92 -55c47 -35 72 -76 75 -146c0 -56 -18 -104 -54 -143c-31 -34 -70 -55 -116 -62v-86h-80v85c-95 16 -166 89 -186 186l76 46
c27 -95 67 -151 150 -151c41 0 72 13 95 40c18 22 27 50 27 83c0 61 -48 96 -132 136c-55 25 -82 41 -118 72c-36 32 -52 71 -52 123c0 89 60 159 140 175v85h80v-86c58 -11 103 -47 134 -108z" />
    <glyph glyph-name="percent" unicode="%" horiz-adv-x="842" 
d="M104 434c-31 31 -46 69 -46 114s15 82 46 113s69 47 114 47s83 -16 114 -47s46 -68 46 -113s-15 -83 -46 -114s-69 -46 -114 -46s-83 15 -114 46zM154 612c-15 -17 -23 -38 -23 -64s8 -48 23 -65c16 -17 37 -25 64 -25s48 8 63 25c16 17 24 39 24 65s-8 47 -24 64
c-15 17 -36 26 -63 26s-48 -9 -64 -26zM510 38c-31 31 -46 69 -46 114s15 82 46 113s69 47 114 47s83 -16 114 -47s46 -68 46 -113s-15 -83 -46 -114s-69 -46 -114 -46s-83 15 -114 46zM560 216c-15 -17 -23 -38 -23 -64s8 -48 23 -65c16 -17 37 -25 64 -25s48 8 63 25
c16 17 24 39 24 65s-8 47 -24 64c-15 17 -36 26 -63 26s-48 -9 -64 -26zM126 11l538 718l50 -39l-538 -719z" />
    <glyph glyph-name="ampersand" unicode="&#x26;" horiz-adv-x="677" 
d="M286 -8c-128 0 -211 79 -211 208c0 49 13 91 39 128c27 37 59 66 96 85c-41 55 -61 104 -61 146c0 43 15 79 44 107c30 28 67 42 111 42c97 0 156 -61 156 -140c0 -27 -8 -56 -25 -85c-19 -32 -56 -62 -111 -91l146 -185c13 27 29 67 47 119l56 -61
c-17 -48 -34 -89 -52 -123l112 -142h-101l-59 74c-48 -55 -110 -82 -187 -82zM286 70c57 0 104 22 139 65l-172 221c-64 -36 -96 -89 -96 -158c0 -80 57 -128 129 -128zM229 555c0 -30 16 -66 49 -109c67 33 103 66 103 117c0 41 -32 73 -77 73s-75 -34 -75 -81z" />
    <glyph glyph-name="quotesingle" unicode="'" horiz-adv-x="288" 
d="M175 476h-62l-25 232h112z" />
    <glyph glyph-name="parenleft" unicode="(" horiz-adv-x="292" 
d="M178 750h84c-70 -111 -105 -245 -105 -400s35 -289 105 -400h-84c-71 112 -107 245 -107 400s36 288 107 400z" />
    <glyph glyph-name="parenright" unicode=")" horiz-adv-x="292" 
d="M30 750h84c71 -112 107 -245 107 -400s-36 -288 -107 -400h-84c70 111 105 245 105 400s-35 289 -105 400z" />
    <glyph glyph-name="asterisk" unicode="*" horiz-adv-x="488" 
d="M210 708h68v-138l131 43l21 -65l-130 -43l80 -111l-55 -39l-81 111l-81 -111l-55 39l80 111l-130 43l21 65l131 -43v138z" />
    <glyph glyph-name="plus" unicode="+" horiz-adv-x="568" 
d="M248 356v183h74v-183h183v-74h-183v-183h-74v183h-183v74h183z" />
    <glyph glyph-name="comma" unicode="," horiz-adv-x="318" 
d="M132 -107h-64l66 217h114z" />
    <glyph glyph-name="hyphen" unicode="-" horiz-adv-x="481" 
d="M410 280h-339v74h339v-74z" />
    <glyph glyph-name="period" unicode="." horiz-adv-x="306" 
d="M90 59c0 35 27 63 63 63c35 0 63 -28 63 -63c0 -36 -28 -63 -63 -63c-36 0 -63 27 -63 63z" />
    <glyph glyph-name="slash" unicode="/" horiz-adv-x="543" 
d="M19 -50l436 800h84l-436 -800h-84z" />
    <glyph glyph-name="zero" unicode="0" horiz-adv-x="624" 
d="M129 612c42 64 103 96 183 96s141 -32 183 -96c42 -63 63 -151 63 -262s-21 -199 -63 -263c-42 -63 -103 -95 -183 -95s-141 32 -183 95c-42 64 -63 152 -63 263s21 199 63 262zM430 555c-27 49 -66 73 -118 73s-91 -24 -118 -73s-40 -117 -40 -205s13 -156 40 -205
s66 -73 118 -73s91 24 118 73s40 117 40 205s-13 156 -40 205z" />
    <glyph glyph-name="one" unicode="1" horiz-adv-x="376" 
d="M74 591l180 109h31v-700h-82v574l-129 -75v92z" />
    <glyph glyph-name="two" unicode="2" horiz-adv-x="570" 
d="M495 0h-423v39l267 342c44 56 57 89 57 133c0 33 -9 59 -26 80c-19 23 -47 34 -84 34c-65 0 -108 -48 -115 -120l-84 16c3 52 24 96 61 131c38 35 84 53 138 53c65 0 116 -20 152 -61c29 -33 44 -78 44 -133c0 -53 -19 -103 -56 -152l-218 -282h287v-80z" />
    <glyph glyph-name="three" unicode="3" horiz-adv-x="578" 
d="M61 192l84 11c13 -87 59 -131 139 -131c84 0 140 55 140 148s-56 148 -140 148c-23 0 -44 -4 -62 -13l-35 47l160 218h-253v80h380v-27l-178 -241c6 2 15 3 28 3c54 0 98 -20 133 -60c35 -39 53 -91 53 -155c0 -67 -21 -122 -63 -165c-42 -42 -96 -63 -163 -63
c-59 0 -109 18 -151 55s-66 85 -72 145z" />
    <glyph glyph-name="four" unicode="4" horiz-adv-x="596" 
d="M454 0h-86v149h-304v35l296 516h94v-471h87v-80h-87v-149zM368 568l-190 -339h190v339z" />
    <glyph glyph-name="five" unicode="5" horiz-adv-x="579" 
d="M78 183l85 16c9 -83 56 -127 127 -127c84 0 134 61 134 156s-50 156 -134 156c-55 0 -102 -26 -141 -78l-53 12l38 382h334v-80h-261l-26 -203c30 31 68 47 115 47c67 0 119 -22 157 -66c38 -43 57 -100 57 -170s-20 -127 -60 -171c-40 -43 -93 -65 -160 -65
c-116 0 -199 67 -212 191z" />
    <glyph glyph-name="six" unicode="6" horiz-adv-x="577" 
d="M297 448c64 0 117 -22 158 -66c42 -43 63 -97 63 -162s-21 -119 -63 -163c-41 -43 -94 -65 -158 -65s-117 22 -159 65c-41 44 -62 98 -62 163c0 45 12 88 36 129l207 359h96l-152 -267c10 5 21 7 34 7zM164 220c0 -85 56 -148 133 -148s133 63 133 148
c0 89 -54 148 -133 148s-133 -59 -133 -148z" />
    <glyph glyph-name="seven" unicode="7" horiz-adv-x="482" 
d="M454 663l-272 -663h-88l257 620h-296v80h399v-37z" />
    <glyph glyph-name="eight" unicode="8" horiz-adv-x="584" 
d="M484 521c0 -60 -32 -119 -79 -144c64 -29 104 -92 104 -176c0 -64 -21 -115 -63 -153c-42 -37 -93 -56 -154 -56s-112 19 -154 56c-42 38 -63 89 -63 153c0 84 40 147 104 176c-47 25 -79 84 -79 144c0 53 18 97 54 133s82 54 138 54s102 -18 138 -54s54 -80 54 -133z
M385 295c-24 23 -55 35 -93 35s-69 -12 -93 -35s-36 -55 -36 -94s12 -71 36 -94s55 -35 93 -35s69 12 93 35s36 55 36 94s-12 71 -36 94zM370 601c-19 21 -45 31 -78 31s-59 -10 -79 -31c-19 -21 -29 -47 -29 -80s10 -59 29 -80c20 -21 46 -31 79 -31s59 10 78 31
c20 21 30 47 30 80s-10 59 -30 80z" />
    <glyph glyph-name="nine" unicode="9" horiz-adv-x="577" 
d="M297 252c-64 0 -117 22 -159 65c-41 44 -62 98 -62 163s21 119 62 162c42 44 95 66 159 66s117 -22 158 -66c42 -43 63 -97 63 -162c0 -45 -12 -88 -36 -129l-207 -359h-96l152 267c-10 -5 -21 -7 -34 -7zM430 480c0 85 -56 148 -133 148s-133 -63 -133 -148
c0 -89 54 -148 133 -148s133 59 133 148z" />
    <glyph glyph-name="colon" unicode=":" horiz-adv-x="306" 
d="M90 59c0 35 27 63 63 63c35 0 63 -28 63 -63c0 -36 -28 -63 -63 -63c-36 0 -63 27 -63 63zM90 403c0 35 27 63 63 63c35 0 63 -28 63 -63c0 -36 -28 -63 -63 -63c-36 0 -63 27 -63 63z" />
    <glyph glyph-name="semicolon" unicode=";" horiz-adv-x="306" 
d="M88 403c0 35 27 63 63 63c35 0 63 -28 63 -63c0 -36 -28 -63 -63 -63c-36 0 -63 27 -63 63zM100 -107h-64l66 217h114z" />
    <glyph glyph-name="less" unicode="&#x3c;" horiz-adv-x="455" 
d="M399 81l-349 185v88l349 185v-86l-267 -143l267 -143v-86z" />
    <glyph glyph-name="equal" unicode="=" horiz-adv-x="599" 
d="M499 356h-399v74h399v-74zM499 190h-399v74h399v-74z" />
    <glyph glyph-name="greater" unicode="&#x3e;" horiz-adv-x="455" 
d="M56 539l349 -185v-88l-349 -185v86l267 143l-267 143v86z" />
    <glyph glyph-name="question" unicode="?" horiz-adv-x="448" 
d="M163 63c0 39 29 68 66 68c39 0 68 -29 68 -68c0 -37 -29 -66 -68 -66c-37 0 -66 29 -66 66zM298 330l65 -23c-24 -71 -69 -106 -134 -106c-80 0 -132 48 -132 125c0 55 28 97 85 126c29 16 72 30 92 41c29 16 44 40 44 71c0 22 -7 39 -22 52c-17 15 -38 22 -65 22
c-52 0 -89 -37 -105 -93l-78 13c20 92 84 150 183 150c51 0 93 -15 124 -44c30 -28 45 -63 45 -105c0 -55 -25 -94 -76 -119l-101 -49c-33 -18 -49 -41 -49 -69c0 -32 20 -51 52 -51c31 0 55 20 72 59z" />
    <glyph glyph-name="at" unicode="@" horiz-adv-x="920" 
d="M579 459l10 50h66l-23 -252c-1 -13 -2 -21 -2 -23c0 -35 16 -52 47 -52c58 0 87 57 87 170c0 196 -96 294 -288 294c-159 0 -311 -117 -311 -348c0 -99 31 -178 92 -235s134 -85 218 -85c44 0 84 4 119 12c36 8 78 24 125 49l28 -67c-55 -25 -101 -43 -137 -52
s-81 -14 -135 -14c-114 0 -208 36 -283 108c-74 73 -111 168 -111 287c0 127 39 228 117 303c79 76 173 114 283 114c113 0 203 -32 268 -96c66 -63 99 -153 99 -270c0 -161 -71 -244 -175 -244c-52 0 -93 30 -112 69c-30 -46 -74 -69 -131 -69c-109 0 -172 78 -172 187
c0 61 19 113 57 156c39 43 90 65 153 65c52 0 89 -19 111 -57zM461 442c-77 0 -121 -61 -121 -150c0 -69 34 -110 97 -110c76 0 122 66 122 150c0 73 -33 110 -98 110z" />
    <glyph glyph-name="A" unicode="A" horiz-adv-x="592" 
d="M12 0l242 700h84l242 -700h-88l-62 187h-268l-62 -187h-88zM402 271l-106 315l-106 -315h212z" />
    <glyph glyph-name="B" unicode="B" horiz-adv-x="618" 
d="M97 0v700h236c123 0 197 -67 197 -180c0 -60 -32 -112 -79 -137c69 -28 113 -91 113 -175c0 -129 -82 -208 -218 -208h-249zM333 331h-148v-247h148c93 0 140 41 140 124c0 82 -47 123 -140 123zM328 616h-143v-201h143c68 0 111 35 111 100s-43 101 -111 101z" />
    <glyph glyph-name="C" unicode="C" horiz-adv-x="688" 
d="M560 229l85 -25c-16 -63 -48 -115 -96 -154s-107 -58 -178 -58c-87 0 -162 31 -224 94c-61 63 -92 151 -92 264s31 201 92 264c62 63 137 94 224 94c71 0 130 -20 178 -59s80 -90 96 -153l-85 -25c-33 102 -96 153 -189 153c-67 0 -121 -24 -163 -71
c-41 -47 -62 -115 -62 -203s21 -156 62 -203c42 -47 96 -71 163 -71c93 0 156 51 189 153z" />
    <glyph glyph-name="D" unicode="D" horiz-adv-x="666" 
d="M97 0v700h192c91 0 167 -31 229 -94c62 -62 93 -147 93 -256s-31 -194 -93 -257c-62 -62 -138 -93 -229 -93h-192zM274 616h-89v-532h89c129 0 243 70 243 266s-114 266 -243 266z" />
    <glyph glyph-name="E" unicode="E" horiz-adv-x="566" 
d="M97 0v700h402v-84h-314v-201h254v-84h-254v-247h324v-84h-412z" />
    <glyph glyph-name="F" unicode="F" horiz-adv-x="538" 
d="M97 0v700h407v-84h-319v-209h259v-84h-259v-323h-88z" />
    <glyph glyph-name="G" unicode="G" horiz-adv-x="714" 
d="M564 269h-151v84h235v-353h-75l-9 96c-35 -61 -106 -104 -197 -104c-86 0 -160 31 -221 93s-91 150 -91 265s31 203 92 265s136 93 224 93c144 0 243 -81 275 -212l-85 -25c-33 102 -97 153 -190 153c-67 0 -121 -24 -163 -71c-41 -47 -62 -115 -62 -203s21 -156 62 -203
c42 -47 96 -71 163 -71c117 0 185 77 193 193z" />
    <glyph glyph-name="H" unicode="H" horiz-adv-x="690" 
d="M505 414v286h88v-700h-88v330h-320v-330h-88v700h88v-286h320z" />
    <glyph glyph-name="I" unicode="I" horiz-adv-x="282" 
d="M97 0v700h88v-700h-88z" />
    <glyph glyph-name="J" unicode="J" horiz-adv-x="509" 
d="M339 219v481h88v-485c0 -70 -19 -125 -58 -164c-38 -39 -87 -59 -146 -59c-121 0 -193 78 -212 183l89 19c17 -79 58 -118 123 -118c77 0 116 48 116 143z" />
    <glyph glyph-name="K" unicode="K" horiz-adv-x="597" 
d="M274 386l308 -386h-112l-285 353v-353h-88v700h88v-281l261 281h112z" />
    <glyph glyph-name="L" unicode="L" horiz-adv-x="521" 
d="M97 0v700h88v-616h318v-84h-406z" />
    <glyph glyph-name="M" unicode="M" horiz-adv-x="784" 
d="M97 0v700h108l187 -493l187 493h108v-700h-88v510l-176 -446h-62l-176 446v-510h-88z" />
    <glyph glyph-name="N" unicode="N" horiz-adv-x="701" 
d="M516 153v547h88v-700h-103l-316 545v-545h-88v700h103z" />
    <glyph glyph-name="O" unicode="O" horiz-adv-x="738" 
d="M146 612c61 64 135 96 223 96s162 -32 223 -96c61 -63 91 -151 91 -262s-30 -199 -91 -263c-61 -63 -135 -95 -223 -95s-162 32 -223 95c-61 64 -91 152 -91 263s30 199 91 262zM529 553c-41 47 -95 71 -160 71s-119 -24 -161 -71c-41 -47 -62 -115 -62 -203
s21 -156 62 -203c42 -47 96 -71 161 -71s119 24 160 71c42 47 63 115 63 203s-21 156 -63 203z" />
    <glyph glyph-name="P" unicode="P" horiz-adv-x="584" 
d="M341 300h-156v-300h-88v700h244c131 0 208 -77 208 -200s-77 -200 -208 -200zM185 384h161c72 0 112 41 112 116s-40 116 -112 116h-161v-232z" />
    <glyph glyph-name="Q" unicode="Q" horiz-adv-x="738" 
d="M683 350c0 -89 -21 -164 -63 -227l68 -67l-64 -64l-65 65c-55 -43 -118 -65 -190 -65c-88 0 -162 32 -223 95c-61 64 -91 152 -91 263s30 199 91 262c61 64 135 96 223 96s162 -32 223 -96c61 -63 91 -151 91 -262zM498 117l-82 83l64 64l76 -77c24 44 36 98 36 163
c0 88 -21 156 -63 203c-41 47 -95 71 -160 71s-119 -24 -161 -71c-41 -47 -62 -115 -62 -203s21 -156 62 -203c42 -47 96 -71 161 -71c51 0 94 14 129 41z" />
    <glyph glyph-name="R" unicode="R" horiz-adv-x="641" 
d="M599 0h-104l-205 330h-105v-330h-88v700h233c125 0 206 -69 206 -185c0 -96 -54 -160 -146 -179zM332 616h-147v-202h147c75 0 113 34 113 101s-38 101 -113 101z" />
    <glyph glyph-name="S" unicode="S" horiz-adv-x="523" 
d="M440 596l-71 -46c-32 57 -64 74 -111 74c-48 0 -84 -40 -84 -87c0 -33 10 -57 41 -81c16 -11 29 -20 40 -26l54 -28c40 -20 59 -30 92 -55c47 -35 72 -76 75 -146c0 -56 -18 -104 -54 -143c-40 -44 -92 -66 -156 -66c-57 0 -106 18 -147 53s-67 81 -79 136l76 46
c27 -95 67 -151 150 -151c41 0 72 13 95 40c18 22 27 50 27 83c0 61 -48 96 -132 136c-55 25 -82 41 -118 72c-36 32 -52 71 -52 123c0 51 17 93 51 127s74 51 121 51c93 0 145 -40 182 -112z" />
    <glyph glyph-name="T" unicode="T" horiz-adv-x="522" 
d="M217 616h-202v84h492v-84h-202v-616h-88v616z" />
    <glyph glyph-name="U" unicode="U" horiz-adv-x="654" 
d="M82 238v462h88v-468c0 -92 58 -156 157 -156s157 64 157 156v468h88v-462c0 -77 -23 -138 -70 -181c-46 -43 -104 -65 -175 -65s-129 22 -176 65c-46 43 -69 104 -69 181z" />
    <glyph glyph-name="V" unicode="V" horiz-adv-x="586" 
d="M293 125l192 575h93l-241 -700h-88l-241 700h93z" />
    <glyph glyph-name="W" unicode="W" horiz-adv-x="904" 
d="M641 130l142 570h93l-187 -700h-92l-145 481l-145 -481h-92l-187 700h93l142 -570l149 496h80z" />
    <glyph glyph-name="X" unicode="X" horiz-adv-x="576" 
d="M238 376l-190 324h101l139 -238l139 238h101l-190 -324l221 -376h-101l-170 290l-170 -290h-101z" />
    <glyph glyph-name="Y" unicode="Y" horiz-adv-x="506" 
d="M209 0v302l-205 398h97l152 -310l152 310h97l-205 -398v-302h-88z" />
    <glyph glyph-name="Z" unicode="Z" horiz-adv-x="555" 
d="M371 616h-314v84h439v-42l-326 -574h336v-84h-461v42z" />
    <glyph glyph-name="bracketleft" unicode="[" horiz-adv-x="323" 
d="M285 -50h-188v800h188v-76h-108v-648h108v-76z" />
    <glyph glyph-name="backslash" unicode="\" horiz-adv-x="543" 
d="M440 -50l-436 800h84l436 -800h-84z" />
    <glyph glyph-name="bracketright" unicode="]" horiz-adv-x="323" 
d="M38 674v76h188v-800h-188v76h108v648h-108z" />
    <glyph glyph-name="asciicircum" unicode="^" horiz-adv-x="556" 
d="M58 421l186 279h68l186 -279h-83l-137 203l-137 -203h-83z" />
    <glyph glyph-name="underscore" unicode="_" horiz-adv-x="459" 
d="M429 -74h-399v74h399v-74z" />
    <glyph glyph-name="grave" unicode="`" horiz-adv-x="228" 
d="M19 704h121l68 -144h-68z" />
    <glyph glyph-name="a" unicode="a" horiz-adv-x="518" 
d="M142 145c0 -48 30 -77 83 -77c38 0 71 12 99 37s42 64 42 117v12h-90c-85 0 -134 -32 -134 -89zM450 322v-322h-66l-14 71c-37 -53 -89 -79 -158 -79c-91 0 -156 50 -156 153c0 107 87 165 228 165h82v22c0 69 -37 104 -110 104c-53 0 -94 -30 -105 -79l-74 17
c13 85 84 138 179 138c117 0 194 -62 194 -190z" />
    <glyph glyph-name="b" unicode="b" horiz-adv-x="601" 
d="M323 -8c-60 0 -122 31 -147 70v-62h-84v708h84v-264c9 16 29 31 58 46s59 22 89 22c144 0 224 -104 224 -260s-80 -260 -224 -260zM315 436c-91 0 -146 -75 -146 -184s55 -184 146 -184c88 0 146 75 146 184s-58 184 -146 184z" />
    <glyph glyph-name="c" unicode="c" horiz-adv-x="538" 
d="M421 161l73 -30c-41 -93 -111 -139 -211 -139c-73 0 -130 25 -170 75c-39 51 -59 112 -59 185s20 134 59 184c40 51 97 76 170 76c100 0 170 -46 211 -139l-73 -30c-27 62 -73 93 -138 93c-93 0 -143 -76 -143 -184s50 -184 143 -184c65 0 111 31 138 93z" />
    <glyph glyph-name="d" unicode="d" horiz-adv-x="601" 
d="M278 512c30 0 60 -7 89 -22s49 -30 58 -46v264h84v-708h-84v62c-25 -39 -87 -70 -147 -70c-144 0 -224 104 -224 260s80 260 224 260zM286 68c91 0 146 75 146 184s-55 184 -146 184c-88 0 -146 -75 -146 -184s58 -184 146 -184z" />
    <glyph glyph-name="e" unicode="e" 
d="M510 273v-39h-370c5 -99 55 -166 142 -166c71 0 111 31 140 96l74 -32c-47 -99 -110 -140 -214 -140c-73 0 -129 25 -169 75c-39 51 -59 112 -59 185s20 134 59 184c40 51 96 76 169 76c71 0 127 -23 167 -70c41 -46 61 -102 61 -169zM282 436c-75 0 -121 -49 -137 -126
h277c-16 76 -63 126 -140 126z" />
    <glyph glyph-name="f" unicode="f" horiz-adv-x="364" 
d="M119 428h-72v76h72v33c0 113 59 171 163 171c29 0 53 -5 72 -16l-17 -74c-19 9 -37 14 -56 14c-55 0 -78 -30 -78 -95v-33h116v-76h-116v-428h-84v428z" />
    <glyph glyph-name="g" unicode="g" horiz-adv-x="507" 
d="M90 342c0 51 17 91 50 122s75 47 126 47c33 0 63 -7 91 -22l90 51l38 -69l-68 -38c17 -26 25 -56 25 -91c0 -51 -17 -92 -50 -123c-33 -30 -75 -45 -126 -45c-33 0 -62 6 -87 18c-22 -11 -33 -27 -33 -49c0 -28 19 -42 57 -42h119c96 0 158 -50 158 -139
c0 -117 -89 -174 -213 -174c-129 0 -214 62 -214 166c0 43 16 78 47 105c-23 19 -34 46 -34 80c0 41 20 72 61 93c-25 30 -37 67 -37 110zM309 29h-102c-10 0 -22 1 -37 2c-22 -17 -33 -42 -33 -74c0 -57 46 -95 130 -95s127 37 127 92c0 50 -28 75 -85 75zM199 413
c-18 -17 -27 -41 -27 -71s9 -54 27 -71c36 -33 98 -33 134 0c18 17 27 41 27 71s-9 54 -27 71c-36 35 -98 35 -134 0z" />
    <glyph glyph-name="h" unicode="h" horiz-adv-x="585" 
d="M499 350v-350h-84v333c0 69 -29 103 -87 103c-39 0 -75 -21 -106 -62s-46 -94 -46 -160v-214h-84v708h84v-298c32 63 98 102 175 102c93 0 148 -57 148 -162z" />
    <glyph glyph-name="i" unicode="i" horiz-adv-x="270" 
d="M93 0v504h84v-504h-84zM72 644c0 36 27 64 63 64s63 -28 63 -64c0 -35 -27 -62 -63 -62s-63 27 -63 62z" />
    <glyph glyph-name="j" unicode="j" horiz-adv-x="270" 
d="M25 -212l-22 80c64 17 92 43 92 114v522h84v-530c0 -103 -55 -167 -154 -186zM72 644c0 36 27 64 63 64s63 -28 63 -64c0 -35 -27 -62 -63 -62s-63 27 -63 62z" />
    <glyph glyph-name="k" unicode="k" horiz-adv-x="511" 
d="M92 0v708h84v-415l196 211h108l-214 -231l230 -273h-107l-213 253v-253h-84z" />
    <glyph glyph-name="l" unicode="l" horiz-adv-x="258" 
d="M90 0v708h84v-708h-84z" />
    <glyph glyph-name="m" unicode="m" horiz-adv-x="862" 
d="M774 355v-355h-84v337c0 66 -27 99 -81 99c-76 0 -134 -88 -134 -229v-207h-84v337c0 66 -27 99 -81 99c-76 0 -134 -88 -134 -229v-207h-84v504h84v-93c34 67 86 101 157 101c69 0 119 -38 135 -105c37 70 92 105 164 105c91 0 142 -58 142 -157z" />
    <glyph glyph-name="n" unicode="n" horiz-adv-x="577" 
d="M491 355v-355h-84v333c0 69 -29 103 -87 103c-39 0 -73 -21 -102 -62c-28 -41 -42 -96 -42 -163v-211h-84v504h84v-93c38 67 94 101 167 101c92 0 148 -57 148 -157z" />
    <glyph glyph-name="o" unicode="o" horiz-adv-x="592" 
d="M120 68c-44 51 -66 113 -66 184s22 132 66 183c45 51 103 77 176 77s131 -26 175 -77c45 -51 67 -112 67 -183s-22 -133 -67 -184c-44 -51 -102 -76 -175 -76s-131 25 -176 76zM181 381c-27 -36 -41 -79 -41 -129s14 -93 41 -130c28 -36 66 -54 115 -54s87 18 114 54
c28 37 42 80 42 130s-14 93 -42 129c-27 37 -65 55 -114 55s-87 -18 -115 -55z" />
    <glyph glyph-name="p" unicode="p" horiz-adv-x="601" 
d="M323 -8c-30 0 -60 7 -89 22s-49 30 -58 46v-264h-84v708h84v-62c25 39 87 70 147 70c144 0 224 -104 224 -260s-80 -260 -224 -260zM315 436c-91 0 -146 -75 -146 -184s55 -184 146 -184c88 0 146 75 146 184s-58 184 -146 184z" />
    <glyph glyph-name="q" unicode="q" horiz-adv-x="601" 
d="M278 512c60 0 122 -31 147 -70v62h84v-708h-84v264c-9 -16 -29 -31 -58 -46s-59 -22 -89 -22c-144 0 -224 104 -224 260s80 260 224 260zM286 68c91 0 146 75 146 184s-55 184 -146 184c-88 0 -146 -75 -146 -184s58 -184 146 -184z" />
    <glyph glyph-name="r" unicode="r" horiz-adv-x="413" 
d="M393 497l-17 -75c-19 9 -38 14 -59 14c-38 0 -71 -22 -99 -65s-42 -103 -42 -180v-191h-84v504h84v-86c29 56 92 94 148 94c27 0 50 -5 69 -15z" />
    <glyph glyph-name="s" unicode="s" horiz-adv-x="461" 
d="M236 512c61 0 110 -26 146 -77l-57 -49c-31 33 -61 50 -92 50c-35 0 -61 -24 -61 -64c-1 -90 235 -72 234 -220c0 -100 -64 -160 -167 -160c-95 0 -159 59 -188 136l71 39c27 -66 66 -99 117 -99c54 0 81 26 81 79c0 33 -37 57 -82 73c-66 25 -150 57 -150 153
c0 80 59 139 148 139z" />
    <glyph glyph-name="t" unicode="t" horiz-adv-x="378" 
d="M112 428h-87v76h87v151l84 53v-204h132v-76h-132v-277c0 -53 24 -83 67 -83c22 0 41 5 57 16l20 -73c-22 -13 -49 -19 -82 -19c-89 0 -146 57 -146 166v270z" />
    <glyph glyph-name="u" unicode="u" horiz-adv-x="577" 
d="M86 149v355h84v-333c0 -69 29 -103 87 -103c39 0 73 21 101 62c29 41 43 96 43 163v211h84v-504h-84v93c-38 -67 -94 -101 -167 -101c-92 0 -148 57 -148 157z" />
    <glyph glyph-name="v" unicode="v" horiz-adv-x="456" 
d="M228 107l123 397h86l-166 -504h-86l-166 504h86z" />
    <glyph glyph-name="w" unicode="w" horiz-adv-x="738" 
d="M510 117l103 387h88l-153 -504h-80l-99 383l-99 -383h-80l-153 504h88l103 -387l99 387h84z" />
    <glyph glyph-name="x" unicode="x" horiz-adv-x="458" 
d="M182 266l-146 238h95l98 -160l98 160h95l-146 -238l164 -266h-95l-116 189l-116 -189h-95z" />
    <glyph glyph-name="y" unicode="y" horiz-adv-x="460" 
d="M235 140l125 364h88l-250 -708h-86l80 225l-177 483h92z" />
    <glyph glyph-name="z" unicode="z" horiz-adv-x="456" 
d="M288 428h-225v76h338v-36l-239 -392h248v-76h-360v36z" />
    <glyph glyph-name="braceleft" unicode="{" horiz-adv-x="318" 
d="M142 50v182c0 60 -20 80 -80 80v76c60 0 80 20 80 80v182c0 60 40 100 100 100h48v-76h-23c-32 0 -45 -13 -45 -45v-181c0 -63 -25 -86 -72 -98c47 -12 72 -35 72 -98v-181c0 -32 13 -45 45 -45h23v-76h-48c-60 0 -100 40 -100 100z" />
    <glyph glyph-name="bar" unicode="|" horiz-adv-x="274" 
d="M97 -50v800h80v-800h-80z" />
    <glyph glyph-name="braceright" unicode="}" horiz-adv-x="318" 
d="M176 232v-182c0 -60 -40 -100 -100 -100h-48v76h23c32 0 45 13 45 45v181c0 63 25 86 72 98c-47 12 -72 35 -72 98v181c0 32 -13 45 -45 45h-23v76h48c60 0 100 -40 100 -100v-182c0 -60 20 -80 80 -80v-76c-60 0 -80 -20 -80 -80z" />
    <glyph glyph-name="asciitilde" unicode="~" horiz-adv-x="628" 
d="M129 268l-49 50c29 55 79 89 132 89c29 0 63 -8 102 -25s69 -25 92 -25c37 0 68 15 93 45l49 -51c-29 -55 -77 -88 -132 -88c-29 0 -63 8 -102 25c-38 17 -69 25 -92 25c-37 0 -68 -15 -93 -45z" />
    <glyph glyph-name="uni00A0" unicode="&#xa0;" horiz-adv-x="268" 
 />
    <glyph glyph-name="exclamdown" unicode="&#xa1;" horiz-adv-x="345" 
d="M203 294l24 -500h-114l24 500h66zM100 429c0 39 30 68 70 68s70 -29 70 -68c0 -40 -30 -71 -70 -71s-70 31 -70 71z" />
    <glyph glyph-name="cent" unicode="&#xa2;" 
d="M427 259l73 -30c-35 -81 -92 -126 -171 -137v-142h-80v143c-61 9 -107 38 -140 86c-33 49 -49 106 -49 171s16 122 49 170c33 49 79 78 140 87v143h80v-142c79 -11 136 -56 171 -137l-73 -30c-26 61 -72 92 -138 92c-93 0 -143 -76 -143 -183s50 -183 143 -183
c66 0 112 31 138 92z" />
    <glyph glyph-name="sterling" unicode="&#xa3;" horiz-adv-x="543" 
d="M146 324h-81v80h53c-12 36 -18 70 -18 103c0 124 77 201 193 201c93 0 164 -50 196 -138l-75 -35c-29 67 -65 93 -121 93c-64 0 -109 -42 -109 -122c0 -36 5 -70 16 -102h164v-80h-138c5 -21 7 -42 7 -63c0 -67 -26 -126 -79 -177c27 18 56 27 87 27c20 0 42 -7 67 -20
s43 -19 56 -19c36 0 59 16 90 68l66 -36c-40 -75 -90 -112 -151 -112c-28 0 -57 7 -87 20c-29 13 -52 20 -67 20c-39 0 -77 -13 -113 -40l-57 62c79 75 111 130 111 197c0 23 -3 48 -10 73z" />
    <glyph glyph-name="currency" unicode="&#xa4;" horiz-adv-x="554" 
d="M114 422l-88 67l69 69l67 -87c68 51 162 51 230 0l67 87l69 -69l-88 -67c47 -68 47 -162 0 -230l88 -67l-69 -69l-67 87c-68 -51 -162 -51 -230 0l-67 -87l-69 69l88 67c-47 68 -47 162 0 230zM191 398c-21 -23 -32 -54 -32 -91s11 -68 32 -91c22 -23 51 -35 86 -35
s64 12 85 35c22 23 33 54 33 91s-11 68 -33 91c-21 23 -50 35 -85 35s-64 -12 -86 -35z" />
    <glyph glyph-name="yen" unicode="&#xa5;" horiz-adv-x="504" 
d="M168 387l-157 313h97l144 -302l144 302h97l-157 -313h116v-80h-156v-80h156v-80h-156v-147h-88v147h-156v80h156v80h-156v80h116z" />
    <glyph glyph-name="brokenbar" unicode="&#xa6;" horiz-adv-x="274" 
d="M97 -50v349h80v-349h-80zM177 750v-349h-80v349h80z" />
    <glyph glyph-name="section" unicode="&#xa7;" horiz-adv-x="540" 
d="M66 274c0 65 24 101 73 137c-27 31 -41 68 -41 111c0 57 17 102 51 135c35 34 75 51 122 51c100 0 162 -49 187 -148l-77 -25c-18 62 -55 93 -110 93c-49 0 -89 -41 -89 -102c0 -35 10 -60 38 -81c14 -10 27 -18 39 -25c13 -7 31 -16 56 -27s45 -21 60 -29
c67 -36 101 -83 101 -142c0 -65 -24 -101 -73 -137c27 -31 41 -68 41 -111c0 -57 -17 -102 -52 -135c-34 -34 -74 -51 -121 -51c-100 0 -162 49 -187 148l77 25c18 -62 55 -93 110 -93c49 0 89 41 89 102c0 35 -10 60 -38 80c-14 11 -27 19 -40 26c-12 7 -30 16 -55 27
s-45 21 -60 29c-67 36 -101 83 -101 142zM143 283c0 -37 33 -70 65 -87l68 -31c29 -13 51 -24 67 -33c37 20 56 47 56 81c0 37 -33 70 -66 86c-16 9 -38 19 -67 32s-51 24 -67 33c-37 -20 -56 -47 -56 -81z" />
    <glyph glyph-name="dieresis" unicode="&#xa8;" horiz-adv-x="319" 
d="M76 708c33 0 57 -25 57 -57s-24 -56 -57 -56c-31 0 -56 24 -56 56s25 57 56 57zM242 708c33 0 57 -25 57 -57s-24 -56 -57 -56c-31 0 -56 24 -56 56s25 57 56 57z" />
    <glyph glyph-name="copyright" unicode="&#xa9;" horiz-adv-x="900" 
d="M178 71c-72 75 -108 168 -108 279s36 204 108 278c73 75 163 112 272 112s199 -37 271 -112c73 -74 109 -167 109 -278s-36 -204 -109 -279c-72 -74 -162 -111 -271 -111s-199 37 -272 111zM233 574c-55 -60 -83 -135 -83 -224s28 -164 83 -224s128 -90 217 -90
s162 30 217 90s83 135 83 224s-28 164 -83 224s-128 90 -217 90s-162 -30 -217 -90zM553 282l70 -17c-16 -81 -86 -131 -173 -131c-52 0 -98 18 -137 55s-59 91 -59 161s20 123 59 160s85 56 137 56c87 0 157 -50 173 -131l-70 -17c-17 52 -51 78 -103 78
c-71 0 -120 -47 -120 -146s49 -146 120 -146c52 0 86 26 103 78z" />
    <glyph glyph-name="ordfeminine" unicode="&#xaa;" horiz-adv-x="437" 
d="M129 416c0 -39 25 -60 66 -60c59 0 111 39 111 120v13h-71c-67 0 -106 -28 -106 -73zM372 555v-255h-54l-9 58c-29 -41 -70 -62 -125 -62c-71 0 -121 40 -121 120c0 84 67 129 178 129h65v17c0 55 -29 82 -87 82c-41 0 -74 -23 -83 -62l-58 13c13 64 70 109 146 109
c92 0 148 -50 148 -149z" />
    <glyph glyph-name="guillemotleft" unicode="&#xab;" horiz-adv-x="611" 
d="M555 80l-277 199v62l277 199v-90l-195 -140l195 -140v-90zM325 80l-277 199v62l277 199v-90l-195 -140l195 -140v-90z" />
    <glyph glyph-name="logicalnot" unicode="&#xac;" horiz-adv-x="581" 
d="M418 313h-349v76h433v-247h-84v171z" />
    <glyph glyph-name="uni00AD" unicode="&#xad;" horiz-adv-x="481" 
d="M410 280h-339v74h339v-74z" />
    <glyph glyph-name="registered" unicode="&#xae;" horiz-adv-x="900" 
d="M178 71c-72 75 -108 168 -108 279s36 204 108 278c73 75 163 112 272 112s199 -37 271 -112c73 -74 109 -167 109 -278s-36 -204 -109 -279c-72 -74 -162 -111 -271 -111s-199 37 -272 111zM233 574c-55 -60 -83 -135 -83 -224s28 -164 83 -224s128 -90 217 -90
s162 30 217 90s83 135 83 224s-28 164 -83 224s-128 90 -217 90s-162 -30 -217 -90zM628 137h-82l-126 182h-38v-182h-72v426h153c85 0 132 -47 132 -122c0 -61 -39 -107 -94 -118zM462 493h-80v-104h80c41 0 61 17 61 52s-20 52 -61 52z" />
    <glyph glyph-name="overscore" unicode="&#xaf;" horiz-adv-x="273" 
d="M261 632h-249v76h249v-76z" />
    <glyph glyph-name="degree" unicode="&#xb0;" horiz-adv-x="356" 
d="M97 513c-21 21 -31 48 -31 80s10 58 31 79s48 32 81 32s59 -11 80 -32s32 -47 32 -79s-11 -59 -32 -80s-47 -31 -80 -31s-60 10 -81 31zM143 628c-17 -17 -17 -52 0 -71c17 -17 53 -17 70 0c17 19 17 54 0 71c-17 19 -53 19 -70 0z" />
    <glyph glyph-name="plusminus" unicode="&#xb1;" horiz-adv-x="568" 
d="M248 436v183h74v-183h183v-74h-183v-183h-74v183h-183v74h183zM505 0h-440v74h440v-74z" />
    <glyph glyph-name="uni00B2" unicode="&#xb2;" horiz-adv-x="382" 
d="M131 575l-64 17c7 65 56 112 123 112c75 0 120 -44 120 -116c0 -37 -13 -72 -38 -103l-103 -125h151v-60h-258v25l149 184c22 27 33 53 33 77c0 39 -18 58 -54 58c-32 0 -55 -26 -59 -69z" />
    <glyph glyph-name="uni00B3" unicode="&#xb3;" horiz-adv-x="389" 
d="M62 415l64 9c5 -43 32 -68 69 -68c44 0 66 31 66 75s-23 71 -66 71c-15 0 -27 -4 -37 -11l-31 41l82 108h-128v60h223v-23l-94 -126c69 0 117 -49 117 -120c0 -79 -53 -135 -132 -135c-75 0 -128 47 -133 119z" />
    <glyph glyph-name="acute" unicode="&#xb4;" horiz-adv-x="228" 
d="M88 560h-68l68 144h121z" />
    <glyph glyph-name="mu" unicode="&#xb5;" horiz-adv-x="577" 
d="M170 3v-207h-84v708h84v-333c0 -69 29 -103 87 -103c39 0 73 21 101 62c29 41 43 96 43 163v211h84v-504h-84v93c-38 -67 -94 -101 -167 -101c-24 0 -45 4 -64 11z" />
    <glyph glyph-name="mu" unicode="&#x3bc;" horiz-adv-x="577" 
d="M170 3v-207h-84v708h84v-333c0 -69 29 -103 87 -103c39 0 73 21 101 62c29 41 43 96 43 163v211h84v-504h-84v93c-38 -67 -94 -101 -167 -101c-24 0 -45 4 -64 11z" />
    <glyph glyph-name="paragraph" unicode="&#xb6;" horiz-adv-x="685" 
d="M253 700h366v-76h-62v-828h-84v828h-136v-828h-84v518c-53 0 -99 19 -137 56c-37 38 -56 84 -56 137s19 99 56 136c38 38 84 57 137 57z" />
    <glyph glyph-name="middot" unicode="&#xb7;" horiz-adv-x="306" 
d="M90 349c0 35 27 63 63 63c35 0 63 -28 63 -63c0 -36 -28 -63 -63 -63c-36 0 -63 27 -63 63z" />
    <glyph glyph-name="cedilla" unicode="&#xb8;" horiz-adv-x="198" 
d="M118 -60h70l-83 -175l-95 45z" />
    <glyph glyph-name="uni00B9" unicode="&#xb9;" horiz-adv-x="292" 
d="M57 639l127 61h22v-400h-63v309l-86 -40v70z" />
    <glyph glyph-name="ordmasculine" unicode="&#xba;" horiz-adv-x="516" 
d="M69 500c0 56 17 104 51 144c35 40 81 60 138 60s102 -20 137 -60s52 -88 52 -144c0 -57 -17 -105 -52 -145c-35 -39 -80 -59 -137 -59s-103 20 -138 59c-34 40 -51 88 -51 145zM258 355c38 0 68 14 89 43c22 29 33 63 33 102s-11 73 -32 101c-21 29 -51 43 -90 43
s-69 -14 -91 -43c-21 -28 -32 -62 -32 -101s11 -73 32 -102c22 -29 52 -43 91 -43z" />
    <glyph glyph-name="guillemotright" unicode="&#xbb;" horiz-adv-x="611" 
d="M56 540l277 -199v-62l-277 -199v90l195 140l-195 140v90zM286 540l277 -199v-62l-277 -199v90l195 140l-195 140v90z" />
    <glyph glyph-name="onequarter" unicode="&#xbc;" horiz-adv-x="794" 
d="M78 639l127 61h22v-400h-63v309l-86 -40v70zM104 11l538 718l50 -39l-538 -719zM661 0h-63v77h-170v26l161 297h72v-263h47v-60h-47v-77zM598 307l-88 -170h88v170z" />
    <glyph glyph-name="onehalf" unicode="&#xbd;" horiz-adv-x="859" 
d="M78 639l127 61h22v-400h-63v309l-86 -40v70zM568 275l-64 17c7 65 56 112 123 112c75 0 120 -44 120 -116c0 -37 -13 -72 -38 -103l-103 -125h151v-60h-258v25l149 184c22 27 33 53 33 77c0 39 -18 58 -54 58c-32 0 -55 -26 -59 -69zM104 11l538 718l50 -39l-538 -719z
" />
    <glyph glyph-name="threequarters" unicode="&#xbe;" horiz-adv-x="855" 
d="M168 11l538 718l50 -39l-538 -719zM62 415l64 9c5 -43 32 -68 69 -68c44 0 66 31 66 75s-23 71 -66 71c-15 0 -27 -4 -37 -11l-31 41l82 108h-128v60h223v-23l-94 -126c69 0 117 -49 117 -120c0 -79 -53 -135 -132 -135c-75 0 -128 47 -133 119zM722 0h-63v77h-170v26
l161 297h72v-263h47v-60h-47v-77zM659 307l-88 -170h88v170z" />
    <glyph glyph-name="questiondown" unicode="&#xbf;" horiz-adv-x="448" 
d="M285 431c0 -39 -29 -68 -66 -68c-39 0 -68 29 -68 68c0 37 29 66 68 66c37 0 66 -29 66 -66zM150 164l-65 23c24 71 69 106 134 106c80 0 132 -48 132 -125c0 -55 -28 -97 -85 -126c-29 -16 -72 -30 -92 -41c-29 -16 -44 -40 -44 -71c0 -22 7 -39 22 -52
c17 -15 38 -22 65 -22c52 0 89 37 105 93l78 -13c-20 -92 -84 -150 -183 -150c-51 0 -93 15 -124 44c-30 28 -45 63 -45 105c0 55 25 94 76 119l101 49c33 18 49 41 49 69c0 32 -20 51 -52 51c-31 0 -55 -20 -72 -59z" />
    <glyph glyph-name="Agrave" unicode="&#xc0;" horiz-adv-x="592" 
d="M12 0l242 700h84l242 -700h-88l-62 187h-268l-62 -187h-88zM402 271l-106 315l-106 -315h212zM158 900h121l68 -144h-68z" />
    <glyph glyph-name="Aacute" unicode="&#xc1;" horiz-adv-x="592" 
d="M12 0l242 700h84l242 -700h-88l-62 187h-268l-62 -187h-88zM402 271l-106 315l-106 -315h212zM303 756h-68l68 144h121z" />
    <glyph glyph-name="Acircumflex" unicode="&#xc2;" horiz-adv-x="592" 
d="M12 0l242 700h84l242 -700h-88l-62 187h-268l-62 -187h-88zM402 271l-106 315l-106 -315h212zM219 762h-86l153 164h26l153 -164h-86l-80 85z" />
    <glyph glyph-name="Atilde" unicode="&#xc3;" horiz-adv-x="592" 
d="M12 0l242 700h84l242 -700h-88l-62 187h-268l-62 -187h-88zM402 271l-106 315l-106 -315h212zM169 782l-49 38c24 45 64 76 107 76c24 0 48 -7 72 -20s44 -20 59 -20c25 0 47 12 66 36l49 -39c-24 -44 -64 -75 -107 -75c-24 0 -48 7 -72 20s-44 20 -59 20
c-25 0 -47 -12 -66 -36z" />
    <glyph glyph-name="Adieresis" unicode="&#xc4;" horiz-adv-x="592" 
d="M12 0l242 700h84l242 -700h-88l-62 187h-268l-62 -187h-88zM402 271l-106 315l-106 -315h212zM213 904c33 0 57 -25 57 -57s-24 -56 -57 -56c-31 0 -56 24 -56 56s25 57 56 57zM379 904c33 0 57 -25 57 -57s-24 -56 -57 -56c-31 0 -56 24 -56 56s25 57 56 57z" />
    <glyph glyph-name="Aring" unicode="&#xc5;" horiz-adv-x="592" 
d="M12 0l242 700h84l242 -700h-88l-62 187h-268l-62 -187h-88zM402 271l-106 315l-106 -315h212zM197 849c0 56 43 100 99 100c57 0 99 -44 99 -100c0 -55 -42 -96 -99 -96c-56 0 -99 41 -99 96zM253 850c-5 -57 91 -57 86 0c5 60 -91 60 -86 0z" />
    <glyph glyph-name="AE" unicode="&#xc6;" horiz-adv-x="830" 
d="M10 0l305 700h448v-84h-314v-201h254v-84h-254v-247h324v-84h-412v187h-181l-80 -187h-90zM361 585h-10l-135 -314h145v314z" />
    <glyph glyph-name="Ccedilla" unicode="&#xc7;" horiz-adv-x="688" 
d="M560 229l85 -25c-16 -63 -48 -115 -96 -154s-107 -58 -178 -58c-87 0 -162 31 -224 94c-61 63 -92 151 -92 264s31 201 92 264c62 63 137 94 224 94c71 0 130 -20 178 -59s80 -90 96 -153l-85 -25c-33 102 -96 153 -189 153c-67 0 -121 -24 -163 -71
c-41 -47 -62 -115 -62 -203s21 -156 62 -203c42 -47 96 -71 163 -71c93 0 156 51 189 153zM362 -60h70l-83 -175l-95 45z" />
    <glyph glyph-name="Egrave" unicode="&#xc8;" horiz-adv-x="566" 
d="M97 0v700h402v-84h-314v-201h254v-84h-254v-247h324v-84h-412zM186 900h121l68 -144h-68z" />
    <glyph glyph-name="Eacute" unicode="&#xc9;" horiz-adv-x="566" 
d="M97 0v700h402v-84h-314v-201h254v-84h-254v-247h324v-84h-412zM297 756h-68l68 144h121z" />
    <glyph glyph-name="Ecircumflex" unicode="&#xca;" horiz-adv-x="566" 
d="M97 0v700h402v-84h-314v-201h254v-84h-254v-247h324v-84h-412zM236 762h-86l153 164h26l153 -164h-86l-80 85z" />
    <glyph glyph-name="Edieresis" unicode="&#xcb;" horiz-adv-x="566" 
d="M97 0v700h402v-84h-314v-201h254v-84h-254v-247h324v-84h-412zM220 904c33 0 57 -25 57 -57s-24 -56 -57 -56c-31 0 -56 24 -56 56s25 57 56 57zM386 904c33 0 57 -25 57 -57s-24 -56 -57 -56c-31 0 -56 24 -56 56s25 57 56 57z" />
    <glyph glyph-name="Igrave" unicode="&#xcc;" horiz-adv-x="282" 
d="M97 0v700h88v-700h-88zM16 900h121l68 -144h-68z" />
    <glyph glyph-name="Iacute" unicode="&#xcd;" horiz-adv-x="282" 
d="M97 0v700h88v-700h-88zM144 756h-68l68 144h121z" />
    <glyph glyph-name="Icircumflex" unicode="&#xce;" horiz-adv-x="282" 
d="M97 0v700h88v-700h-88zM64 762h-86l153 164h26l153 -164h-86l-80 85z" />
    <glyph glyph-name="Idieresis" unicode="&#xcf;" horiz-adv-x="282" 
d="M97 0v700h88v-700h-88zM58 904c33 0 57 -25 57 -57s-24 -56 -57 -56c-31 0 -56 24 -56 56s25 57 56 57zM224 904c33 0 57 -25 57 -57s-24 -56 -57 -56c-31 0 -56 24 -56 56s25 57 56 57z" />
    <glyph glyph-name="Eth" unicode="&#xd0;" horiz-adv-x="687" 
d="M118 308h-83v84h83v308h192c91 0 167 -31 229 -94c62 -62 93 -147 93 -256s-31 -194 -93 -257c-62 -62 -138 -93 -229 -93h-192v308zM295 616h-89v-224h83v-84h-83v-224h89c129 0 243 70 243 266s-114 266 -243 266z" />
    <glyph glyph-name="Ntilde" unicode="&#xd1;" horiz-adv-x="701" 
d="M516 153v547h88v-700h-103l-316 545v-545h-88v700h103zM228 782l-49 38c24 45 64 76 107 76c24 0 48 -7 72 -20s44 -20 59 -20c25 0 47 12 66 36l49 -39c-24 -44 -64 -75 -107 -75c-24 0 -48 7 -72 20s-44 20 -59 20c-25 0 -47 -12 -66 -36z" />
    <glyph glyph-name="Ograve" unicode="&#xd2;" horiz-adv-x="738" 
d="M146 612c61 64 135 96 223 96s162 -32 223 -96c61 -63 91 -151 91 -262s-30 -199 -91 -263c-61 -63 -135 -95 -223 -95s-162 32 -223 95c-61 64 -91 152 -91 263s30 199 91 262zM529 553c-41 47 -95 71 -160 71s-119 -24 -161 -71c-41 -47 -62 -115 -62 -203
s21 -156 62 -203c42 -47 96 -71 161 -71s119 24 160 71c42 47 63 115 63 203s-21 156 -63 203zM254 900h121l68 -144h-68z" />
    <glyph glyph-name="Oacute" unicode="&#xd3;" horiz-adv-x="738" 
d="M146 612c61 64 135 96 223 96s162 -32 223 -96c61 -63 91 -151 91 -262s-30 -199 -91 -263c-61 -63 -135 -95 -223 -95s-162 32 -223 95c-61 64 -91 152 -91 263s30 199 91 262zM529 553c-41 47 -95 71 -160 71s-119 -24 -161 -71c-41 -47 -62 -115 -62 -203
s21 -156 62 -203c42 -47 96 -71 161 -71s119 24 160 71c42 47 63 115 63 203s-21 156 -63 203zM362 756h-68l68 144h121z" />
    <glyph glyph-name="Ocircumflex" unicode="&#xd4;" horiz-adv-x="738" 
d="M146 612c61 64 135 96 223 96s162 -32 223 -96c61 -63 91 -151 91 -262s-30 -199 -91 -263c-61 -63 -135 -95 -223 -95s-162 32 -223 95c-61 64 -91 152 -91 263s30 199 91 262zM529 553c-41 47 -95 71 -160 71s-119 -24 -161 -71c-41 -47 -62 -115 -62 -203
s21 -156 62 -203c42 -47 96 -71 161 -71s119 24 160 71c42 47 63 115 63 203s-21 156 -63 203zM292 762h-86l153 164h26l153 -164h-86l-80 85z" />
    <glyph glyph-name="Otilde" unicode="&#xd5;" horiz-adv-x="738" 
d="M146 612c61 64 135 96 223 96s162 -32 223 -96c61 -63 91 -151 91 -262s-30 -199 -91 -263c-61 -63 -135 -95 -223 -95s-162 32 -223 95c-61 64 -91 152 -91 263s30 199 91 262zM529 553c-41 47 -95 71 -160 71s-119 -24 -161 -71c-41 -47 -62 -115 -62 -203
s21 -156 62 -203c42 -47 96 -71 161 -71s119 24 160 71c42 47 63 115 63 203s-21 156 -63 203zM242 782l-49 38c24 45 64 76 107 76c24 0 48 -7 72 -20s44 -20 59 -20c25 0 47 12 66 36l49 -39c-24 -44 -64 -75 -107 -75c-24 0 -48 7 -72 20s-44 20 -59 20
c-25 0 -47 -12 -66 -36z" />
    <glyph glyph-name="Odieresis" unicode="&#xd6;" horiz-adv-x="738" 
d="M146 612c61 64 135 96 223 96s162 -32 223 -96c61 -63 91 -151 91 -262s-30 -199 -91 -263c-61 -63 -135 -95 -223 -95s-162 32 -223 95c-61 64 -91 152 -91 263s30 199 91 262zM529 553c-41 47 -95 71 -160 71s-119 -24 -161 -71c-41 -47 -62 -115 -62 -203
s21 -156 62 -203c42 -47 96 -71 161 -71s119 24 160 71c42 47 63 115 63 203s-21 156 -63 203zM286 904c33 0 57 -25 57 -57s-24 -56 -57 -56c-31 0 -56 24 -56 56s25 57 56 57zM452 904c33 0 57 -25 57 -57s-24 -56 -57 -56c-31 0 -56 24 -56 56s25 57 56 57z" />
    <glyph glyph-name="multiply" unicode="&#xd7;" horiz-adv-x="554" 
d="M277 371l158 158l52 -52l-158 -158l158 -158l-52 -52l-158 158l-158 -158l-52 52l158 158l-158 158l52 52z" />
    <glyph glyph-name="Oslash" unicode="&#xd8;" horiz-adv-x="738" 
d="M369 708c70 0 131 -20 183 -60l61 79l59 -44l-67 -86c52 -65 78 -147 78 -247c0 -111 -30 -199 -91 -263c-61 -63 -135 -95 -223 -95c-70 0 -131 20 -183 60l-61 -79l-59 44l67 86c-52 65 -78 147 -78 247c0 111 30 199 91 262c61 64 135 96 223 96zM592 350
c0 71 -14 129 -43 174l-311 -405c37 -29 80 -43 131 -43c65 0 119 24 160 71c42 47 63 115 63 203zM369 624c-65 0 -119 -24 -161 -71c-41 -47 -62 -115 -62 -203c0 -71 14 -129 43 -174l311 405c-37 29 -80 43 -131 43z" />
    <glyph glyph-name="Ugrave" unicode="&#xd9;" horiz-adv-x="654" 
d="M82 238v462h88v-468c0 -92 58 -156 157 -156s157 64 157 156v468h88v-462c0 -77 -23 -138 -70 -181c-46 -43 -104 -65 -175 -65s-129 22 -176 65c-46 43 -69 104 -69 181zM217 900h121l68 -144h-68z" />
    <glyph glyph-name="Uacute" unicode="&#xda;" horiz-adv-x="654" 
d="M82 238v462h88v-468c0 -92 58 -156 157 -156s157 64 157 156v468h88v-462c0 -77 -23 -138 -70 -181c-46 -43 -104 -65 -175 -65s-129 22 -176 65c-46 43 -69 104 -69 181zM315 756h-68l68 144h121z" />
    <glyph glyph-name="Ucircumflex" unicode="&#xdb;" horiz-adv-x="654" 
d="M82 238v462h88v-468c0 -92 58 -156 157 -156s157 64 157 156v468h88v-462c0 -77 -23 -138 -70 -181c-46 -43 -104 -65 -175 -65s-129 22 -176 65c-46 43 -69 104 -69 181zM250 762h-86l153 164h26l153 -164h-86l-80 85z" />
    <glyph glyph-name="Udieresis" unicode="&#xdc;" horiz-adv-x="654" 
d="M82 238v462h88v-468c0 -92 58 -156 157 -156s157 64 157 156v468h88v-462c0 -77 -23 -138 -70 -181c-46 -43 -104 -65 -175 -65s-129 22 -176 65c-46 43 -69 104 -69 181zM244 904c33 0 57 -25 57 -57s-24 -56 -57 -56c-31 0 -56 24 -56 56s25 57 56 57zM410 904
c33 0 57 -25 57 -57s-24 -56 -57 -56c-31 0 -56 24 -56 56s25 57 56 57z" />
    <glyph glyph-name="Yacute" unicode="&#xdd;" horiz-adv-x="506" 
d="M209 0v302l-205 398h97l152 -310l152 310h97l-205 -398v-302h-88zM267 756h-68l68 144h121z" />
    <glyph glyph-name="Thorn" unicode="&#xde;" horiz-adv-x="584" 
d="M341 150h-156v-150h-88v700h88v-150h156c131 0 208 -77 208 -200s-77 -200 -208 -200zM185 234h161c72 0 112 41 112 116s-40 116 -112 116h-161v-232z" />
    <glyph glyph-name="germandbls" unicode="&#xdf;" horiz-adv-x="554" 
d="M88 346h-50v74h50v85c0 65 18 115 54 150s81 53 135 53c119 0 186 -75 186 -179c0 -73 -38 -122 -90 -139c36 -7 68 -26 95 -57c28 -31 42 -72 42 -121c0 -148 -84 -220 -215 -220c-27 0 -51 2 -71 7v76c23 -5 47 -7 71 -7c84 0 131 47 131 138s-53 140 -141 140h-35v74
h35c65 0 98 35 98 106c0 67 -41 106 -106 106c-67 0 -105 -46 -105 -130v-502h-84v346z" />
    <glyph glyph-name="agrave" unicode="&#xe0;" horiz-adv-x="518" 
d="M142 145c0 -48 30 -77 83 -77c38 0 71 12 99 37s42 64 42 117v12h-90c-85 0 -134 -32 -134 -89zM450 322v-322h-66l-14 71c-37 -53 -89 -79 -158 -79c-91 0 -156 50 -156 153c0 107 87 165 228 165h82v22c0 69 -37 104 -110 104c-53 0 -94 -30 -105 -79l-74 17
c13 85 84 138 179 138c117 0 194 -62 194 -190zM135 704h121l68 -144h-68z" />
    <glyph glyph-name="aacute" unicode="&#xe1;" horiz-adv-x="518" 
d="M142 145c0 -48 30 -77 83 -77c38 0 71 12 99 37s42 64 42 117v12h-90c-85 0 -134 -32 -134 -89zM450 322v-322h-66l-14 71c-37 -53 -89 -79 -158 -79c-91 0 -156 50 -156 153c0 107 87 165 228 165h82v22c0 69 -37 104 -110 104c-53 0 -94 -30 -105 -79l-74 17
c13 85 84 138 179 138c117 0 194 -62 194 -190zM249 560h-68l68 144h121z" />
    <glyph glyph-name="acircumflex" unicode="&#xe2;" horiz-adv-x="518" 
d="M142 145c0 -48 30 -77 83 -77c38 0 71 12 99 37s42 64 42 117v12h-90c-85 0 -134 -32 -134 -89zM450 322v-322h-66l-14 71c-37 -53 -89 -79 -158 -79c-91 0 -156 50 -156 153c0 107 87 165 228 165h82v22c0 69 -37 104 -110 104c-53 0 -94 -30 -105 -79l-74 17
c13 85 84 138 179 138c117 0 194 -62 194 -190zM180 566h-86l153 164h26l153 -164h-86l-80 85z" />
    <glyph glyph-name="atilde" unicode="&#xe3;" horiz-adv-x="518" 
d="M142 145c0 -48 30 -77 83 -77c38 0 71 12 99 37s42 64 42 117v12h-90c-85 0 -134 -32 -134 -89zM450 322v-322h-66l-14 71c-37 -53 -89 -79 -158 -79c-91 0 -156 50 -156 153c0 107 87 165 228 165h82v22c0 69 -37 104 -110 104c-53 0 -94 -30 -105 -79l-74 17
c13 85 84 138 179 138c117 0 194 -62 194 -190zM136 586l-49 38c24 45 64 76 107 76c24 0 48 -7 72 -20s44 -20 59 -20c25 0 47 12 66 36l49 -39c-24 -44 -64 -75 -107 -75c-24 0 -48 7 -72 20s-44 20 -59 20c-25 0 -47 -12 -66 -36z" />
    <glyph glyph-name="adieresis" unicode="&#xe4;" horiz-adv-x="518" 
d="M142 145c0 -48 30 -77 83 -77c38 0 71 12 99 37s42 64 42 117v12h-90c-85 0 -134 -32 -134 -89zM450 322v-322h-66l-14 71c-37 -53 -89 -79 -158 -79c-91 0 -156 50 -156 153c0 107 87 165 228 165h82v22c0 69 -37 104 -110 104c-53 0 -94 -30 -105 -79l-74 17
c13 85 84 138 179 138c117 0 194 -62 194 -190zM177 708c33 0 57 -25 57 -57s-24 -56 -57 -56c-31 0 -56 24 -56 56s25 57 56 57zM343 708c33 0 57 -25 57 -57s-24 -56 -57 -56c-31 0 -56 24 -56 56s25 57 56 57z" />
    <glyph glyph-name="aring" unicode="&#xe5;" horiz-adv-x="518" 
d="M142 145c0 -48 30 -77 83 -77c38 0 71 12 99 37s42 64 42 117v12h-90c-85 0 -134 -32 -134 -89zM450 322v-322h-66l-14 71c-37 -53 -89 -79 -158 -79c-91 0 -156 50 -156 153c0 107 87 165 228 165h82v22c0 69 -37 104 -110 104c-53 0 -94 -30 -105 -79l-74 17
c13 85 84 138 179 138c117 0 194 -62 194 -190zM157 653c0 56 43 100 99 100c57 0 99 -44 99 -100c0 -55 -42 -96 -99 -96c-56 0 -99 41 -99 96zM213 654c-5 -57 91 -57 86 0c5 60 -91 60 -86 0z" />
    <glyph glyph-name="ae" unicode="&#xe6;" horiz-adv-x="872" 
d="M822 273v-39h-370c5 -99 55 -166 142 -166c71 0 111 31 140 96l74 -32c-47 -99 -110 -140 -214 -140c-89 0 -153 38 -194 113c-42 -75 -105 -113 -188 -113c-91 0 -156 50 -156 153c0 107 87 165 228 165h82v22c0 69 -37 104 -110 104c-53 0 -94 -30 -105 -79l-74 17
c13 85 84 138 179 138c79 0 135 -26 167 -79c42 53 99 79 171 79c71 0 127 -23 167 -70c41 -46 61 -102 61 -169zM142 145c0 -48 30 -77 83 -77c38 0 71 12 99 37s42 64 42 117v12h-90c-85 0 -134 -32 -134 -89zM594 436c-75 0 -121 -49 -137 -126h277
c-13 75 -63 126 -140 126z" />
    <glyph glyph-name="ccedilla" unicode="&#xe7;" horiz-adv-x="538" 
d="M421 161l73 -30c-41 -93 -111 -139 -211 -139c-73 0 -130 25 -170 75c-39 51 -59 112 -59 185s20 134 59 184c40 51 97 76 170 76c100 0 170 -46 211 -139l-73 -30c-27 62 -73 93 -138 93c-93 0 -143 -76 -143 -184s50 -184 143 -184c65 0 111 31 138 93zM295 -60h70
l-83 -175l-95 45z" />
    <glyph glyph-name="egrave" unicode="&#xe8;" 
d="M510 273v-39h-370c5 -99 55 -166 142 -166c71 0 111 31 140 96l74 -32c-47 -99 -110 -140 -214 -140c-73 0 -129 25 -169 75c-39 51 -59 112 -59 185s20 134 59 184c40 51 96 76 169 76c71 0 127 -23 167 -70c41 -46 61 -102 61 -169zM282 436c-75 0 -121 -49 -137 -126
h277c-16 76 -63 126 -140 126zM160 704h121l68 -144h-68z" />
    <glyph glyph-name="eacute" unicode="&#xe9;" 
d="M510 273v-39h-370c5 -99 55 -166 142 -166c71 0 111 31 140 96l74 -32c-47 -99 -110 -140 -214 -140c-73 0 -129 25 -169 75c-39 51 -59 112 -59 185s20 134 59 184c40 51 96 76 169 76c71 0 127 -23 167 -70c41 -46 61 -102 61 -169zM282 436c-75 0 -121 -49 -137 -126
h277c-16 76 -63 126 -140 126zM270 560h-68l68 144h121z" />
    <glyph glyph-name="ecircumflex" unicode="&#xea;" 
d="M510 273v-39h-370c5 -99 55 -166 142 -166c71 0 111 31 140 96l74 -32c-47 -99 -110 -140 -214 -140c-73 0 -129 25 -169 75c-39 51 -59 112 -59 185s20 134 59 184c40 51 96 76 169 76c71 0 127 -23 167 -70c41 -46 61 -102 61 -169zM282 436c-75 0 -121 -49 -137 -126
h277c-16 76 -63 126 -140 126zM202 566h-86l153 164h26l153 -164h-86l-80 85z" />
    <glyph glyph-name="edieresis" unicode="&#xeb;" 
d="M510 273v-39h-370c5 -99 55 -166 142 -166c71 0 111 31 140 96l74 -32c-47 -99 -110 -140 -214 -140c-73 0 -129 25 -169 75c-39 51 -59 112 -59 185s20 134 59 184c40 51 96 76 169 76c71 0 127 -23 167 -70c41 -46 61 -102 61 -169zM282 436c-75 0 -121 -49 -137 -126
h277c-16 76 -63 126 -140 126zM199 708c33 0 57 -25 57 -57s-24 -56 -57 -56c-31 0 -56 24 -56 56s25 57 56 57zM365 708c33 0 57 -25 57 -57s-24 -56 -57 -56c-31 0 -56 24 -56 56s25 57 56 57z" />
    <glyph glyph-name="igrave" unicode="&#xec;" horiz-adv-x="270" 
d="M93 0v504h84v-504h-84zM11 704h121l68 -144h-68z" />
    <glyph glyph-name="iacute" unicode="&#xed;" horiz-adv-x="270" 
d="M93 0v504h84v-504h-84zM139 560h-68l68 144h121z" />
    <glyph glyph-name="icircumflex" unicode="&#xee;" horiz-adv-x="270" 
d="M93 0v504h84v-504h-84zM58 566h-86l153 164h26l153 -164h-86l-80 85z" />
    <glyph glyph-name="idieresis" unicode="&#xef;" horiz-adv-x="270" 
d="M93 0v504h84v-504h-84zM52 708c33 0 57 -25 57 -57s-24 -56 -57 -56c-31 0 -56 24 -56 56s25 57 56 57zM218 708c33 0 57 -25 57 -57s-24 -56 -57 -56c-31 0 -56 24 -56 56s25 57 56 57z" />
    <glyph glyph-name="eth" unicode="&#xf0;" horiz-adv-x="580" 
d="M293 601l-39 -59l-59 42l38 57c-21 12 -48 25 -80 38l40 61c30 -13 57 -26 80 -39l37 54l58 -42l-34 -51c137 -103 192 -229 192 -410c0 -72 -21 -133 -64 -184c-42 -51 -99 -76 -172 -76s-130 25 -173 76c-42 51 -63 112 -63 184s21 133 63 184c43 51 100 76 173 76
c44 0 93 -19 113 -44c-17 47 -54 91 -110 133zM440 252c0 52 -13 96 -40 131c-26 35 -63 53 -110 53c-49 0 -86 -18 -112 -54c-25 -36 -38 -79 -38 -130s13 -94 38 -130c26 -36 63 -54 112 -54s86 18 111 54c26 36 39 79 39 130z" />
    <glyph glyph-name="ntilde" unicode="&#xf1;" horiz-adv-x="577" 
d="M491 355v-355h-84v333c0 69 -29 103 -87 103c-39 0 -73 -21 -102 -62c-28 -41 -42 -96 -42 -163v-211h-84v504h84v-93c38 67 94 101 167 101c92 0 148 -57 148 -157zM163 586l-49 38c24 45 64 76 107 76c24 0 48 -7 72 -20s44 -20 59 -20c25 0 47 12 66 36l49 -39
c-24 -44 -64 -75 -107 -75c-24 0 -48 7 -72 20s-44 20 -59 20c-25 0 -47 -12 -66 -36z" />
    <glyph glyph-name="ograve" unicode="&#xf2;" horiz-adv-x="592" 
d="M120 68c-44 51 -66 113 -66 184s22 132 66 183c45 51 103 77 176 77s131 -26 175 -77c45 -51 67 -112 67 -183s-22 -133 -67 -184c-44 -51 -102 -76 -175 -76s-131 25 -176 76zM181 381c-27 -36 -41 -79 -41 -129s14 -93 41 -130c28 -36 66 -54 115 -54s87 18 114 54
c28 37 42 80 42 130s-14 93 -42 129c-27 37 -65 55 -114 55s-87 -18 -115 -55zM181 704h121l68 -144h-68z" />
    <glyph glyph-name="oacute" unicode="&#xf3;" horiz-adv-x="592" 
d="M120 68c-44 51 -66 113 -66 184s22 132 66 183c45 51 103 77 176 77s131 -26 175 -77c45 -51 67 -112 67 -183s-22 -133 -67 -184c-44 -51 -102 -76 -175 -76s-131 25 -176 76zM181 381c-27 -36 -41 -79 -41 -129s14 -93 41 -130c28 -36 66 -54 115 -54s87 18 114 54
c28 37 42 80 42 130s-14 93 -42 129c-27 37 -65 55 -114 55s-87 -18 -115 -55zM289 560h-68l68 144h121z" />
    <glyph glyph-name="ocircumflex" unicode="&#xf4;" horiz-adv-x="592" 
d="M120 68c-44 51 -66 113 -66 184s22 132 66 183c45 51 103 77 176 77s131 -26 175 -77c45 -51 67 -112 67 -183s-22 -133 -67 -184c-44 -51 -102 -76 -175 -76s-131 25 -176 76zM181 381c-27 -36 -41 -79 -41 -129s14 -93 41 -130c28 -36 66 -54 115 -54s87 18 114 54
c28 37 42 80 42 130s-14 93 -42 129c-27 37 -65 55 -114 55s-87 -18 -115 -55zM216 566h-86l153 164h26l153 -164h-86l-80 85z" />
    <glyph glyph-name="otilde" unicode="&#xf5;" horiz-adv-x="592" 
d="M120 68c-44 51 -66 113 -66 184s22 132 66 183c45 51 103 77 176 77s131 -26 175 -77c45 -51 67 -112 67 -183s-22 -133 -67 -184c-44 -51 -102 -76 -175 -76s-131 25 -176 76zM181 381c-27 -36 -41 -79 -41 -129s14 -93 41 -130c28 -36 66 -54 115 -54s87 18 114 54
c28 37 42 80 42 130s-14 93 -42 129c-27 37 -65 55 -114 55s-87 -18 -115 -55zM169 586l-49 38c24 45 64 76 107 76c24 0 48 -7 72 -20s44 -20 59 -20c25 0 47 12 66 36l49 -39c-24 -44 -64 -75 -107 -75c-24 0 -48 7 -72 20s-44 20 -59 20c-25 0 -47 -12 -66 -36z" />
    <glyph glyph-name="odieresis" unicode="&#xf6;" horiz-adv-x="592" 
d="M120 68c-44 51 -66 113 -66 184s22 132 66 183c45 51 103 77 176 77s131 -26 175 -77c45 -51 67 -112 67 -183s-22 -133 -67 -184c-44 -51 -102 -76 -175 -76s-131 25 -176 76zM181 381c-27 -36 -41 -79 -41 -129s14 -93 41 -130c28 -36 66 -54 115 -54s87 18 114 54
c28 37 42 80 42 130s-14 93 -42 129c-27 37 -65 55 -114 55s-87 -18 -115 -55zM213 708c33 0 57 -25 57 -57s-24 -56 -57 -56c-31 0 -56 24 -56 56s25 57 56 57zM379 708c33 0 57 -25 57 -57s-24 -56 -57 -56c-31 0 -56 24 -56 56s25 57 56 57z" />
    <glyph glyph-name="divide" unicode="&#xf7;" horiz-adv-x="536" 
d="M205 128c0 35 27 63 63 63c35 0 63 -28 63 -63c0 -36 -28 -63 -63 -63c-36 0 -63 27 -63 63zM205 502c0 35 27 63 63 63c35 0 63 -28 63 -63c0 -36 -28 -63 -63 -63c-36 0 -63 27 -63 63zM488 280h-440v74h440v-74z" />
    <glyph glyph-name="oslash" unicode="&#xf8;" horiz-adv-x="592" 
d="M424 476l56 71l60 -43l-61 -78c39 -49 59 -107 59 -174c0 -71 -22 -133 -67 -184c-44 -51 -102 -76 -175 -76c-49 0 -91 12 -128 36l-56 -71l-60 43l61 78c-39 49 -59 107 -59 174c0 71 22 132 66 183c45 51 103 77 176 77c49 0 91 -12 128 -36zM452 252
c0 39 -9 75 -26 106l-209 -267c24 -15 50 -23 79 -23c49 0 87 18 114 54c28 37 42 80 42 130zM140 252c0 -39 9 -75 26 -106l209 267c-24 15 -50 23 -79 23c-49 0 -87 -18 -115 -55c-27 -36 -41 -79 -41 -129z" />
    <glyph glyph-name="ugrave" unicode="&#xf9;" horiz-adv-x="577" 
d="M86 149v355h84v-333c0 -69 29 -103 87 -103c39 0 73 21 101 62c29 41 43 96 43 163v211h84v-504h-84v93c-38 -67 -94 -101 -167 -101c-92 0 -148 57 -148 157zM166 704h121l68 -144h-68z" />
    <glyph glyph-name="uacute" unicode="&#xfa;" horiz-adv-x="577" 
d="M86 149v355h84v-333c0 -69 29 -103 87 -103c39 0 73 21 101 62c29 41 43 96 43 163v211h84v-504h-84v93c-38 -67 -94 -101 -167 -101c-92 0 -148 57 -148 157zM281 560h-68l68 144h121z" />
    <glyph glyph-name="ucircumflex" unicode="&#xfb;" horiz-adv-x="577" 
d="M86 149v355h84v-333c0 -69 29 -103 87 -103c39 0 73 21 101 62c29 41 43 96 43 163v211h84v-504h-84v93c-38 -67 -94 -101 -167 -101c-92 0 -148 57 -148 157zM207 566h-86l153 164h26l153 -164h-86l-80 85z" />
    <glyph glyph-name="udieresis" unicode="&#xfc;" horiz-adv-x="577" 
d="M86 149v355h84v-333c0 -69 29 -103 87 -103c39 0 73 21 101 62c29 41 43 96 43 163v211h84v-504h-84v93c-38 -67 -94 -101 -167 -101c-92 0 -148 57 -148 157zM203 708c33 0 57 -25 57 -57s-24 -56 -57 -56c-31 0 -56 24 -56 56s25 57 56 57zM369 708c33 0 57 -25 57 -57
s-24 -56 -57 -56c-31 0 -56 24 -56 56s25 57 56 57z" />
    <glyph glyph-name="yacute" unicode="&#xfd;" horiz-adv-x="460" 
d="M235 140l125 364h88l-250 -708h-86l80 225l-177 483h92zM252 560h-68l68 144h121z" />
    <glyph glyph-name="thorn" unicode="&#xfe;" horiz-adv-x="601" 
d="M323 -8c-60 0 -122 31 -147 70v-266h-84v912h84v-264c9 16 29 31 58 46s59 22 89 22c144 0 224 -104 224 -260s-80 -260 -224 -260zM315 436c-91 0 -146 -75 -146 -184s55 -184 146 -184c88 0 146 75 146 184s-58 184 -146 184z" />
    <glyph glyph-name="ydieresis" unicode="&#xff;" horiz-adv-x="460" 
d="M235 140l125 364h88l-250 -708h-86l80 225l-177 483h92zM153 708c33 0 57 -25 57 -57s-24 -56 -57 -56c-31 0 -56 24 -56 56s25 57 56 57zM319 708c33 0 57 -25 57 -57s-24 -56 -57 -56c-31 0 -56 24 -56 56s25 57 56 57z" />
    <glyph glyph-name="dotlessi" unicode="&#x131;" horiz-adv-x="270" 
d="M93 0v504h84v-504h-84z" />
    <glyph glyph-name="Lslash" unicode="&#x141;" horiz-adv-x="521" 
d="M97 349v351h88v-302l117 65l36 -65l-153 -84v-230h318v-84h-406v265l-65 -37l-36 65z" />
    <glyph glyph-name="lslash" unicode="&#x142;" horiz-adv-x="339" 
d="M124 380v328h84v-283l66 38l36 -65l-102 -57v-341h-84v296l-66 -37l-36 65z" />
    <glyph glyph-name="OE" unicode="&#x152;" horiz-adv-x="1064" 
d="M595 609v91h402v-84h-314v-201h254v-84h-254v-247h324v-84h-412v91c-59 -66 -134 -99 -226 -99c-88 0 -162 32 -223 95c-61 64 -91 152 -91 263s30 199 91 262c61 64 135 96 223 96c92 0 167 -33 226 -99zM529 553c-41 47 -95 71 -160 71s-119 -24 -161 -71
c-41 -47 -62 -115 -62 -203s21 -156 62 -203c42 -47 96 -71 161 -71s119 24 160 71c42 47 63 115 63 203s-21 156 -63 203z" />
    <glyph glyph-name="oe" unicode="&#x153;" horiz-adv-x="958" 
d="M908 273v-39h-370c5 -99 55 -166 142 -166c71 0 111 31 140 96l74 -32c-47 -99 -110 -140 -214 -140c-83 0 -146 35 -188 104c-46 -69 -111 -104 -196 -104c-73 0 -131 25 -176 76c-44 51 -66 113 -66 184s22 132 66 183c45 51 103 77 176 77c85 0 150 -35 196 -104
c41 69 104 104 188 104c71 0 127 -23 167 -70c41 -46 61 -102 61 -169zM296 68c47 0 85 18 113 55c29 37 43 80 43 129s-14 92 -43 129c-28 37 -66 55 -113 55c-49 0 -87 -18 -115 -55c-27 -36 -41 -79 -41 -129s14 -93 41 -130c28 -36 66 -54 115 -54zM680 436
c-75 0 -121 -49 -137 -126h277c-13 75 -63 126 -140 126z" />
    <glyph glyph-name="Scaron" unicode="&#x160;" horiz-adv-x="523" 
d="M440 596l-71 -46c-32 57 -64 74 -111 74c-48 0 -84 -40 -84 -87c0 -33 10 -57 41 -81c16 -11 29 -20 40 -26l54 -28c40 -20 59 -30 92 -55c47 -35 72 -76 75 -146c0 -56 -18 -104 -54 -143c-40 -44 -92 -66 -156 -66c-57 0 -106 18 -147 53s-67 81 -79 136l76 46
c27 -95 67 -151 150 -151c41 0 72 13 95 40c18 22 27 50 27 83c0 61 -48 96 -132 136c-55 25 -82 41 -118 72c-36 32 -52 71 -52 123c0 51 17 93 51 127s74 51 121 51c93 0 145 -40 182 -112zM276 762h-26l-153 164h86l80 -85l80 85h86z" />
    <glyph glyph-name="scaron" unicode="&#x161;" horiz-adv-x="461" 
d="M236 512c61 0 110 -26 146 -77l-57 -49c-31 33 -61 50 -92 50c-35 0 -61 -24 -61 -64c-1 -90 235 -72 234 -220c0 -100 -64 -160 -167 -160c-95 0 -159 59 -188 136l71 39c27 -66 66 -99 117 -99c54 0 81 26 81 79c0 33 -37 57 -82 73c-66 25 -150 57 -150 153
c0 80 59 139 148 139zM248 566h-26l-153 164h86l80 -85l80 85h86z" />
    <glyph glyph-name="Ydieresis" unicode="&#x178;" horiz-adv-x="506" 
d="M209 0v302l-205 398h97l152 -310l152 310h97l-205 -398v-302h-88zM170 904c33 0 57 -25 57 -57s-24 -56 -57 -56c-31 0 -56 24 -56 56s25 57 56 57zM336 904c33 0 57 -25 57 -57s-24 -56 -57 -56c-31 0 -56 24 -56 56s25 57 56 57z" />
    <glyph glyph-name="Zcaron" unicode="&#x17d;" horiz-adv-x="555" 
d="M371 616h-314v84h439v-42l-326 -574h336v-84h-461v42zM288 762h-26l-153 164h86l80 -85l80 85h86z" />
    <glyph glyph-name="zcaron" unicode="&#x17e;" horiz-adv-x="456" 
d="M288 428h-225v76h338v-36l-239 -392h248v-76h-360v36zM244 566h-26l-153 164h86l80 -85l80 85h86z" />
    <glyph glyph-name="florin" unicode="&#x192;" horiz-adv-x="478" 
d="M187 428h-89l14 76h89l7 33c25 120 91 171 196 171c27 0 50 -5 69 -16l-31 -74c-16 9 -34 14 -54 14c-55 0 -83 -30 -96 -95l-7 -33h114l-14 -76h-114l-91 -469c-22 -114 -87 -171 -196 -171c-27 0 -50 5 -69 16l31 74c16 -9 34 -14 54 -14c55 0 83 30 96 95z" />
    <glyph glyph-name="circumflex" unicode="&#x2c6;" horiz-adv-x="390" 
d="M115 566h-86l153 164h26l153 -164h-86l-80 85z" />
    <glyph glyph-name="caron" unicode="&#x2c7;" horiz-adv-x="390" 
d="M208 566h-26l-153 164h86l80 -85l80 85h86z" />
    <glyph glyph-name="breve" unicode="&#x2d8;" horiz-adv-x="250" 
d="M165 700h67c0 -61 -47 -109 -111 -109c-63 0 -111 48 -111 109h67c0 -27 19 -45 44 -45c27 0 44 18 44 45z" />
    <glyph glyph-name="dotaccent" unicode="&#x2d9;" horiz-adv-x="270" 
d="M72 644c0 36 28 64 63 64c36 0 63 -28 63 -64c0 -35 -27 -62 -63 -62c-35 0 -63 27 -63 62z" />
    <glyph glyph-name="ring" unicode="&#x2da;" horiz-adv-x="234" 
d="M18 653c0 56 43 100 99 100c57 0 99 -44 99 -100c0 -55 -42 -96 -99 -96c-56 0 -99 41 -99 96zM74 654c-5 -57 91 -57 86 0c5 60 -91 60 -86 0z" />
    <glyph glyph-name="ogonek" unicode="&#x2db;" horiz-adv-x="214" 
d="M70 -60h62c-37 -33 -56 -60 -56 -80s10 -30 30 -30c21 0 32 10 55 41l43 -35c-33 -51 -61 -71 -108 -71c-52 0 -86 32 -86 83c0 33 20 63 60 92z" />
    <glyph glyph-name="tilde" unicode="&#x2dc;" horiz-adv-x="389" 
d="M67 586l-49 38c24 45 64 76 107 76c24 0 48 -7 72 -20s44 -20 59 -20c25 0 47 12 66 36l49 -39c-24 -44 -64 -75 -107 -75c-24 0 -48 7 -72 20s-44 20 -59 20c-25 0 -47 -12 -66 -36z" />
    <glyph glyph-name="hungarumlaut" unicode="&#x2dd;" horiz-adv-x="407" 
d="M90 560h-68l68 144h121zM271 560h-68l68 144h121z" />
    <glyph glyph-name="uni2206" unicode="&#x394;" horiz-adv-x="668" 
d="M613 0h-558v20l240 680h78l240 -680v-20zM508 76l-174 503l-174 -503h348z" />
    <glyph glyph-name="uni2206" unicode="&#x2206;" horiz-adv-x="668" 
d="M613 0h-558v20l240 680h78l240 -680v-20zM508 76l-174 503l-174 -503h348z" />
    <glyph glyph-name="uni2126" unicode="&#x3a9;" horiz-adv-x="682" 
d="M295 0h-220v76h129l-30 56c-12 24 -28 68 -48 132s-30 123 -30 176c0 79 22 144 65 193c44 50 104 75 180 75s136 -25 179 -75c44 -49 66 -114 66 -193c0 -53 -9 -110 -27 -171s-36 -108 -54 -142l-27 -51h129v-76h-220v23l12 24c5 10 13 31 26 62c13 32 25 64 34 95
c10 31 19 69 27 112c8 44 12 85 12 124c0 119 -58 192 -157 192s-157 -73 -157 -192c0 -61 9 -127 28 -196s37 -123 56 -162l27 -59v-23z" />
    <glyph glyph-name="uni2126" unicode="&#x2126;" horiz-adv-x="682" 
d="M295 0h-220v76h129l-30 56c-12 24 -28 68 -48 132s-30 123 -30 176c0 79 22 144 65 193c44 50 104 75 180 75s136 -25 179 -75c44 -49 66 -114 66 -193c0 -53 -9 -110 -27 -171s-36 -108 -54 -142l-27 -51h129v-76h-220v23l12 24c5 10 13 31 26 62c13 32 25 64 34 95
c10 31 19 69 27 112c8 44 12 85 12 124c0 119 -58 192 -157 192s-157 -73 -157 -192c0 -61 9 -127 28 -196s37 -123 56 -162l27 -59v-23z" />
    <glyph glyph-name="pi" unicode="&#x3c0;" horiz-adv-x="605" 
d="M143 428h-88v76h494v-76h-88v-428h-84v428h-150v-428h-84v428z" />
    <glyph glyph-name="uni2000" unicode="&#x2000;" horiz-adv-x="474" 
 />
    <glyph glyph-name="uni2001" unicode="&#x2001;" horiz-adv-x="949" 
 />
    <glyph glyph-name="uni2002" unicode="&#x2002;" horiz-adv-x="474" 
 />
    <glyph glyph-name="uni2003" unicode="&#x2003;" horiz-adv-x="949" 
 />
    <glyph glyph-name="uni2004" unicode="&#x2004;" horiz-adv-x="316" 
 />
    <glyph glyph-name="uni2005" unicode="&#x2005;" horiz-adv-x="237" 
 />
    <glyph glyph-name="uni2006" unicode="&#x2006;" horiz-adv-x="158" 
 />
    <glyph glyph-name="uni2007" unicode="&#x2007;" horiz-adv-x="158" 
 />
    <glyph glyph-name="uni2008" unicode="&#x2008;" horiz-adv-x="118" 
 />
    <glyph glyph-name="uni2009" unicode="&#x2009;" horiz-adv-x="189" 
 />
    <glyph glyph-name="uni200A" unicode="&#x200a;" horiz-adv-x="52" 
 />
    <glyph glyph-name="uni2010" unicode="&#x2010;" horiz-adv-x="481" 
d="M410 280h-339v74h339v-74z" />
    <glyph glyph-name="uni2011" unicode="&#x2011;" horiz-adv-x="481" 
d="M410 280h-339v74h339v-74z" />
    <glyph glyph-name="endash" unicode="&#x2013;" horiz-adv-x="561" 
d="M490 280h-419v74h419v-74z" />
    <glyph glyph-name="emdash" unicode="&#x2014;" horiz-adv-x="759" 
d="M688 280h-617v74h617v-74z" />
    <glyph glyph-name="quoteleft" unicode="&#x2018;" horiz-adv-x="299" 
d="M58 708h122l69 -205h-64z" />
    <glyph glyph-name="quoteright" unicode="&#x2019;" horiz-adv-x="299" 
d="M114 503h-64l69 205h122z" />
    <glyph glyph-name="quotesinglbase" unicode="&#x201a;" horiz-adv-x="299" 
d="M114 -14h-64l69 205h122z" />
    <glyph glyph-name="quotedblleft" unicode="&#x201c;" horiz-adv-x="473" 
d="M232 708h122l69 -205h-64zM58 708h122l69 -205h-64z" />
    <glyph glyph-name="quotedblright" unicode="&#x201d;" horiz-adv-x="473" 
d="M114 503h-64l69 205h122zM288 503h-64l69 205h122z" />
    <glyph glyph-name="quotedblbase" unicode="&#x201e;" horiz-adv-x="473" 
d="M114 -14h-64l69 205h122zM288 -14h-64l69 205h122z" />
    <glyph glyph-name="dagger" unicode="&#x2020;" horiz-adv-x="460" 
d="M190 424h-130v80h130v246h80v-246h130v-80h-130v-474h-80v474z" />
    <glyph glyph-name="daggerdbl" unicode="&#x2021;" horiz-adv-x="460" 
d="M190 424h-130v80h130v246h80v-246h130v-80h-130v-148h130v-80h-130v-246h-80v246h-130v80h130v148z" />
    <glyph glyph-name="bullet" unicode="&#x2022;" horiz-adv-x="324" 
d="M107 275c-29 31 -29 80 0 109c31 31 80 31 109 0c31 -29 31 -78 0 -109c-29 -29 -78 -29 -109 0z" />
    <glyph glyph-name="ellipsis" unicode="&#x2026;" horiz-adv-x="836" 
d="M90 59c0 35 27 63 63 63c35 0 63 -28 63 -63c0 -36 -28 -63 -63 -63c-36 0 -63 27 -63 63zM355 59c0 35 27 63 63 63c35 0 63 -28 63 -63c0 -36 -28 -63 -63 -63c-36 0 -63 27 -63 63zM620 59c0 35 27 63 63 63c35 0 63 -28 63 -63c0 -36 -28 -63 -63 -63
c-36 0 -63 27 -63 63z" />
    <glyph glyph-name="uni202F" unicode="&#x202f;" horiz-adv-x="189" 
 />
    <glyph glyph-name="perthousand" unicode="&#x2030;" horiz-adv-x="1222" 
d="M104 435c-31 31 -46 68 -46 113s15 82 46 113s69 47 114 47s83 -16 114 -47s46 -68 46 -113s-15 -82 -46 -113s-69 -46 -114 -46s-83 15 -114 46zM154 612c-31 -33 -31 -95 0 -128c16 -17 37 -25 64 -25s48 8 63 25c32 33 32 95 0 128c-15 17 -36 26 -63 26
s-48 -9 -64 -26zM510 38c-31 31 -46 68 -46 113s15 82 46 113s69 47 114 47s83 -16 114 -47s46 -68 46 -113s-15 -82 -46 -113s-69 -46 -114 -46s-83 15 -114 46zM560 215c-31 -33 -31 -95 0 -128c16 -17 37 -25 64 -25s48 8 63 25c32 33 32 95 0 128c-15 17 -36 26 -63 26
s-48 -9 -64 -26zM890 38c-31 31 -46 68 -46 113s15 82 46 113s69 47 114 47s83 -16 114 -47s46 -68 46 -113s-15 -82 -46 -113s-69 -46 -114 -46s-83 15 -114 46zM940 215c-31 -33 -31 -95 0 -128c16 -17 37 -25 64 -25s48 8 63 25c32 33 32 95 0 128c-15 17 -36 26 -63 26
s-48 -9 -64 -26zM127 11l538 718l50 -39l-538 -719z" />
    <glyph glyph-name="guilsinglleft" unicode="&#x2039;" horiz-adv-x="381" 
d="M325 80l-277 199v62l277 199v-90l-195 -140l195 -140v-90z" />
    <glyph glyph-name="guilsinglright" unicode="&#x203a;" horiz-adv-x="381" 
d="M56 540l277 -199v-62l-277 -199v90l195 140l-195 140v90z" />
    <glyph glyph-name="fraction" unicode="&#x2044;" horiz-adv-x="608" 
d="M10 11l538 718l50 -39l-538 -719z" />
    <glyph glyph-name="uni205F" unicode="&#x205f;" horiz-adv-x="237" 
 />
    <glyph glyph-name="uni2070" unicode="&#x2070;" horiz-adv-x="394" 
d="M86 649c27 37 64 55 111 55s84 -18 111 -55c27 -36 40 -86 40 -149s-13 -113 -40 -150c-27 -36 -64 -54 -111 -54s-84 18 -111 54c-27 37 -40 87 -40 150s13 113 40 149zM258 607c-15 25 -36 37 -61 37s-46 -12 -62 -37c-15 -25 -23 -60 -23 -107s8 -82 23 -107
c16 -25 37 -37 62 -37s46 12 61 37c16 25 24 60 24 107s-8 82 -24 107z" />
    <glyph glyph-name="uni2074" unicode="&#x2074;" horiz-adv-x="340" 
d="M265 300h-63v77h-170v26l161 297h72v-263h47v-60h-47v-77zM202 607l-88 -170h88v170z" />
    <glyph glyph-name="uni2075" unicode="&#x2075;" horiz-adv-x="340" 
d="M48 407l62 10c8 -37 30 -61 66 -61c44 0 69 30 69 75c0 47 -25 78 -69 78c-29 0 -52 -12 -70 -37l-50 11l22 217h208v-60h-153l-13 -98c21 15 43 23 68 23c76 0 123 -53 123 -134s-55 -135 -135 -135c-68 0 -120 43 -128 111z" />
    <glyph glyph-name="uni2076" unicode="&#x2076;" horiz-adv-x="367" 
d="M199 559c76 0 121 -53 121 -132c0 -76 -54 -131 -133 -131c-80 0 -135 55 -135 131c0 29 7 55 21 80l113 197h70l-87 -152c7 5 17 7 30 7zM118 427c0 -41 29 -71 69 -71c39 0 67 30 67 71c0 44 -27 72 -67 72s-69 -28 -69 -72z" />
    <glyph glyph-name="uni2077" unicode="&#x2077;" horiz-adv-x="304" 
d="M286 675l-154 -375h-66l139 340h-159v60h240v-25z" />
    <glyph glyph-name="uni2078" unicode="&#x2078;" horiz-adv-x="354" 
d="M293 597c0 -32 -20 -65 -47 -81c40 -20 60 -52 60 -96c0 -76 -53 -124 -129 -124s-129 48 -129 124c0 44 20 76 60 96c-27 16 -47 49 -47 81c0 61 47 107 116 107s116 -46 116 -107zM223 466c-23 24 -69 24 -92 0s-23 -68 0 -92s69 -24 92 0s23 68 0 92zM217 636
c-20 21 -60 21 -81 0c-20 -20 -20 -58 0 -79c21 -20 61 -20 81 0c21 21 21 59 0 79z" />
    <glyph glyph-name="uni2079" unicode="&#x2079;" horiz-adv-x="367" 
d="M168 441c-76 0 -121 53 -121 132c0 76 54 131 133 131c80 0 135 -55 135 -131c0 -29 -7 -55 -21 -80l-113 -197h-70l87 152c-7 -5 -17 -7 -30 -7zM249 573c0 41 -29 71 -69 71c-39 0 -67 -30 -67 -71c0 -44 27 -72 67 -72s69 28 69 72z" />
    <glyph glyph-name="Euro" unicode="&#x20ac;" horiz-adv-x="628" 
d="M122 387h-90l40 80h57c27 153 121 241 260 241c91 0 156 -38 197 -114l-71 -39c-30 49 -72 73 -126 73c-97 0 -155 -54 -176 -161h237l-40 -80h-204v-74h244l-40 -80h-197c21 -107 79 -161 176 -161c54 0 96 24 126 73l71 -39c-41 -76 -106 -114 -197 -114
c-139 0 -233 88 -260 241h-97l40 80h50v74z" />
    <glyph glyph-name="trademark" unicode="&#x2122;" horiz-adv-x="822" 
d="M133 640h-105v60h281v-60h-105v-340h-71v340zM382 300v400h74l105 -263l105 263h74v-400h-71v253l-87 -216h-42l-87 216v-253h-71z" />
    <glyph glyph-name="partialdiff" unicode="&#x2202;" horiz-adv-x="601" 
d="M48 211c0 85 26 156 79 214s121 87 204 87c53 0 94 -17 121 -50c-11 107 -67 170 -146 170c-54 0 -93 -28 -118 -84l-82 21c33 85 107 139 203 139c156 0 230 -130 230 -351c0 -177 -82 -365 -285 -365c-61 0 -111 20 -149 61s-57 93 -57 158zM323 436
c-56 0 -102 -23 -137 -70c-35 -46 -52 -98 -52 -157c0 -84 48 -141 125 -141c57 0 102 22 136 66c34 45 51 99 51 162c0 87 -43 140 -123 140z" />
    <glyph glyph-name="product" unicode="&#x220f;" horiz-adv-x="552" 
d="M176 0h-84v700h368v-700h-84v624h-200v-624z" />
    <glyph glyph-name="summation" unicode="&#x2211;" horiz-adv-x="550" 
d="M485 624h-300l169 -264v-20l-169 -264h300v-76h-427v20l212 330l-212 330v20h427v-76z" />
    <glyph glyph-name="minus" unicode="&#x2212;" horiz-adv-x="570" 
d="M507 280h-440v74h440v-74z" />
    <glyph glyph-name="radical" unicode="&#x221a;" horiz-adv-x="572" 
d="M297 132l170 576h80l-217 -708h-66l-102 313h-104v76h153z" />
    <glyph glyph-name="infinity" unicode="&#x221e;" horiz-adv-x="880" 
d="M638 168c-69 0 -146 39 -198 111c-52 -72 -129 -111 -198 -111c-115 0 -184 76 -184 191s69 191 184 191c69 0 146 -39 198 -111c52 72 129 111 198 111c115 0 184 -76 184 -191s-69 -191 -184 -191zM257 244c47 0 105 42 141 115c-36 73 -94 115 -141 115
c-69 0 -113 -43 -113 -115s44 -115 113 -115zM623 244c69 0 113 43 113 115s-44 115 -113 115c-47 0 -105 -42 -141 -115c36 -73 94 -115 141 -115z" />
    <glyph glyph-name="integral" unicode="&#x222b;" horiz-adv-x="478" 
d="M96 -41l112 578c22 114 87 171 196 171c27 0 50 -5 69 -16l-31 -74c-16 9 -34 14 -54 14c-55 0 -83 -30 -96 -95l-112 -578c-22 -114 -87 -171 -196 -171c-27 0 -50 5 -69 16l31 74c16 -9 34 -14 54 -14c55 0 83 30 96 95z" />
    <glyph glyph-name="approxequal" unicode="&#x2248;" horiz-adv-x="604" 
d="M117 168l-49 50c29 55 79 89 132 89c29 0 63 -8 102 -25s69 -25 92 -25c37 0 68 15 93 45l49 -51c-29 -55 -77 -88 -132 -88c-29 0 -63 8 -102 25c-38 17 -69 25 -92 25c-37 0 -68 -15 -93 -45zM117 368l-49 50c29 55 79 89 132 89c29 0 63 -8 102 -25s69 -25 92 -25
c37 0 68 15 93 45l49 -51c-29 -55 -77 -88 -132 -88c-29 0 -63 8 -102 25c-38 17 -69 25 -92 25c-37 0 -68 -15 -93 -45z" />
    <glyph glyph-name="notequal" unicode="&#x2260;" horiz-adv-x="559" 
d="M263 356h-183v74h225l59 102l64 -37l-37 -65h88v-74h-132l-51 -92h183v-74h-225l-59 -102l-64 37l37 65h-88v74h132z" />
    <glyph glyph-name="lessequal" unicode="&#x2264;" horiz-adv-x="557" 
d="M495 0h-440v74h440v-74zM450 173l-349 185v88l349 185v-86l-267 -143l267 -143v-86z" />
    <glyph glyph-name="greaterequal" unicode="&#x2265;" horiz-adv-x="557" 
d="M62 74h440v-74h-440v74zM107 631l349 -185v-88l-349 -185v86l267 143l-267 143v86z" />
    <glyph glyph-name="lozenge" unicode="&#x25ca;" horiz-adv-x="578" 
d="M330 0h-82l-180 350l180 350h82l180 -350zM152 350l137 -272l137 272l-137 272z" />
    <glyph glyph-name="CR" horiz-adv-x="268" 
 />
    <glyph glyph-name="apple" horiz-adv-x="786" 
d="M689 617v-595c0 -12 -10 -22 -22 -22c-2 0 -4 0 -7 1l-267 77l-267 -77c-3 -1 -5 -1 -7 -1c-12 0 -22 10 -22 22v595c0 11 5 19 16 22l270 78c8 3 12 3 20 0l270 -78c11 -3 16 -11 16 -22zM371 366v303l-230 -67c4 -63 28 -116 71 -161c44 -45 97 -70 159 -75zM645 602
l-230 67v-303c62 5 115 30 158 75c44 45 68 98 72 161zM140 463v-412l231 67v204c-97 8 -183 61 -231 141zM415 118l231 -67v412c-49 -80 -134 -133 -231 -141v-204z" />
    <glyph glyph-name="No" horiz-adv-x="1254" 
d="M1177 0h-438v76h438v-76zM782 264c-44 51 -66 113 -66 184s22 132 66 183c45 51 103 77 176 77s131 -26 175 -77c45 -51 67 -112 67 -183s-22 -133 -67 -184c-44 -51 -102 -76 -175 -76s-131 25 -176 76zM843 577c-27 -36 -41 -79 -41 -129s14 -93 41 -130
c28 -36 66 -54 115 -54s87 18 114 54c28 37 42 80 42 130s-14 93 -42 129c-27 37 -65 55 -114 55s-87 -18 -115 -55zM516 153v547h88v-700h-103l-316 545v-545h-88v700h103z" />
    <glyph glyph-name="zero.tn" 
d="M97 612c42 64 103 96 183 96s141 -32 183 -96c42 -63 63 -151 63 -262s-21 -199 -63 -263c-42 -63 -103 -95 -183 -95s-141 32 -183 95c-42 64 -63 152 -63 263s21 199 63 262zM398 555c-27 49 -66 73 -118 73s-91 -24 -118 -73s-40 -117 -40 -205s13 -156 40 -205
s66 -73 118 -73s91 24 118 73s40 117 40 205s-13 156 -40 205z" />
    <glyph glyph-name="one.tn" 
d="M136 591l180 109h31v-700h-82v574l-129 -75v92z" />
    <glyph glyph-name="two.tn" 
d="M491 0h-423v39l267 342c44 56 57 89 57 133c0 33 -9 59 -26 80c-19 23 -47 34 -84 34c-65 0 -108 -48 -115 -120l-84 16c3 52 24 96 61 131c38 35 84 53 138 53c65 0 116 -20 152 -61c29 -33 44 -78 44 -133c0 -53 -19 -103 -56 -152l-218 -282h287v-80z" />
    <glyph glyph-name="three.tn" 
d="M58 192l84 11c13 -87 59 -131 139 -131c84 0 140 55 140 148s-56 148 -140 148c-23 0 -44 -4 -62 -13l-35 47l160 218h-253v80h380v-27l-178 -241c6 2 15 3 28 3c54 0 98 -20 133 -60c35 -39 53 -91 53 -155c0 -67 -21 -122 -63 -165c-42 -42 -96 -63 -163 -63
c-59 0 -109 18 -151 55s-66 85 -72 145z" />
    <glyph glyph-name="four.tn" 
d="M434 0h-86v149h-304v35l296 516h94v-471h87v-80h-87v-149zM348 568l-190 -339h190v339z" />
    <glyph glyph-name="five.tn" 
d="M63 183l85 16c9 -83 56 -127 127 -127c84 0 134 61 134 156s-50 156 -134 156c-55 0 -102 -26 -141 -78l-53 12l38 382h334v-80h-261l-26 -203c30 31 68 47 115 47c67 0 119 -22 157 -66c38 -43 57 -100 57 -170s-20 -127 -60 -171c-40 -43 -93 -65 -160 -65
c-116 0 -199 67 -212 191z" />
    <glyph glyph-name="six.tn" 
d="M280 448c64 0 117 -22 158 -66c42 -43 63 -97 63 -162s-21 -119 -63 -163c-41 -43 -94 -65 -158 -65s-117 22 -159 65c-41 44 -62 98 -62 163c0 45 12 88 36 129l207 359h96l-152 -267c10 5 21 7 34 7zM147 220c0 -85 56 -148 133 -148s133 63 133 148
c0 89 -54 148 -133 148s-133 -59 -133 -148z" />
    <glyph glyph-name="seven.tn" 
d="M478 663l-272 -663h-88l257 620h-296v80h399v-37z" />
    <glyph glyph-name="eight.tn" 
d="M472 521c0 -60 -32 -119 -79 -144c64 -29 104 -92 104 -176c0 -64 -21 -115 -63 -153c-42 -37 -93 -56 -154 -56s-112 19 -154 56c-42 38 -63 89 -63 153c0 84 40 147 104 176c-47 25 -79 84 -79 144c0 53 18 97 54 133s82 54 138 54s102 -18 138 -54s54 -80 54 -133z
M373 295c-24 23 -55 35 -93 35s-69 -12 -93 -35s-36 -55 -36 -94s12 -71 36 -94s55 -35 93 -35s69 12 93 35s36 55 36 94s-12 71 -36 94zM358 601c-19 21 -45 31 -78 31s-59 -10 -79 -31c-19 -21 -29 -47 -29 -80s10 -59 29 -80c20 -21 46 -31 79 -31s59 10 78 31
c20 21 30 47 30 80s-10 59 -30 80z" />
    <glyph glyph-name="nine.tn" 
d="M280 252c-64 0 -117 22 -159 65c-41 44 -62 98 -62 163s21 119 62 162c42 44 95 66 159 66s117 -22 158 -66c42 -43 63 -97 63 -162c0 -45 -12 -88 -36 -129l-207 -359h-96l152 267c-10 -5 -21 -7 -34 -7zM413 480c0 85 -56 148 -133 148s-133 -63 -133 -148
c0 -89 54 -148 133 -148s133 59 133 148z" />
    </font>
</defs>
</svg>
