<?xml version="1.0" standalone="no"?>
<!DOCTYPE svg PUBLIC "-//W3C//DTD SVG 1.1//EN" "http://www.w3.org/Graphics/SVG/1.1/DTD/svg11.dtd" >
<svg xmlns="http://www.w3.org/2000/svg" xmlns:xlink="http://www.w3.org/1999/xlink" version="1.1">
<metadata>
Created by FontForge 20170910 at Fri Aug 27 16:45:39 2010
 By Jimmy Wärting
Copyright (c) 2009 by The Entente (AS &#38; EH). All rights reserved.
</metadata>
<defs>
<font id="Apercu-MediumItalic" horiz-adv-x="566" >
  <font-face 
    font-family="Apercu"
    font-weight="500"
    font-style="italic"
    font-stretch="normal"
    units-per-em="1000"
    panose-1="2 0 6 6 4 0 0 9 0 4"
    ascent="800"
    descent="-200"
    x-height="504"
    cap-height="700"
    bbox="-142 -251 1247 951"
    underline-thickness="50"
    underline-position="-100"
    slope="-12"
    unicode-range="U+0020-FB02"
  />
<missing-glyph horiz-adv-x="645" 
d="M551 0h-457v700h457v-700zM448 94v512h-251v-512h251z" />
    <glyph glyph-name="uniFB01" unicode="fi" horiz-adv-x="536" 
d="M102 412h-65l18 92h65l3 18c21 124 101 186 240 186c62 0 109 -10 142 -29l-43 -88c-33 17 -68 25 -105 25c-76 0 -119 -31 -129 -94l-3 -18h269l-98 -504h-105l80 412h-164l-80 -412h-105z" />
    <glyph glyph-name="uniFB02" unicode="fl" horiz-adv-x="614" 
d="M102 412h-65l18 92h65l5 26c23 119 99 178 204 178h254l-137 -708h-105l119 616h-146c-45 0 -73 -26 -83 -79l-6 -33h111l-18 -92h-111l-80 -412h-105z" />
    <glyph glyph-name=".notdef" horiz-adv-x="645" 
d="M551 0h-457v700h457v-700zM448 94v512h-251v-512h251z" />
    <glyph glyph-name="NULL" horiz-adv-x="0" 
 />
    <glyph glyph-name="CR.001" horiz-adv-x="333" 
 />
    <glyph glyph-name="space" unicode=" " horiz-adv-x="227" 
 />
    <glyph glyph-name="exclam" unicode="!" horiz-adv-x="360" 
d="M119 221l66 479h142l-119 -479h-89zM79 17c-28 29 -28 79 0 107c29 29 81 29 109 0c29 -28 29 -78 0 -107c-28 -28 -80 -28 -109 0z" />
    <glyph glyph-name="quotedbl" unicode="&#x22;" horiz-adv-x="467" 
d="M194 469h-70l17 239h130zM365 469h-70l17 239h130z" />
    <glyph glyph-name="numbersign" unicode="#" horiz-adv-x="701" 
d="M222 417h-118l10 82h135l66 201h87l-66 -201h125l66 201h87l-66 -201h116l-10 -82h-133l-43 -134h119l-10 -82h-136l-65 -201h-87l65 201h-125l-65 -201h-87l65 201h-115l10 82h132zM434 417h-125l-43 -134h125z" />
    <glyph glyph-name="dollar" unicode="$" horiz-adv-x="533" 
d="M501 585l-97 -51c-17 49 -47 74 -91 74c-49 0 -87 -33 -87 -88c0 -28 11 -51 36 -71c27 -19 41 -27 80 -46c87 -41 127 -86 127 -182c0 -74 -23 -130 -69 -169c-39 -33 -87 -53 -145 -58l-16 -84h-100l17 90c-81 24 -139 98 -140 187l95 53c7 -89 53 -144 126 -144
c69 0 118 40 118 111c0 55 -34 86 -105 121c-91 45 -137 106 -137 184c0 112 71 182 180 194l17 84h100l-18 -93c53 -20 94 -65 109 -112z" />
    <glyph glyph-name="percent" unicode="%" horiz-adv-x="885" 
d="M60 524c0 55 18 99 55 134c35 33 81 50 138 50c40 0 73 -13 98 -40c26 -26 39 -58 39 -96c0 -51 -18 -96 -55 -134c-31 -33 -77 -50 -138 -50c-40 0 -73 13 -99 39c-25 27 -38 59 -38 97zM239 625c-26 0 -47 -8 -64 -25s-26 -39 -26 -66c0 -37 23 -63 62 -63
c26 0 47 8 64 25s26 39 26 66c0 37 -23 63 -62 63zM465 128c0 55 18 99 55 134c35 33 81 50 138 50c40 0 73 -13 98 -40c26 -26 39 -58 39 -96c0 -55 -18 -99 -55 -134c-35 -33 -81 -50 -138 -50c-40 0 -73 13 -99 39c-25 27 -38 59 -38 97zM644 229c-26 0 -47 -8 -64 -25
s-26 -39 -26 -66c0 -37 23 -63 62 -63c26 0 47 8 64 25s26 39 26 66c0 37 -23 63 -62 63zM62 15l678 720l51 -49l-678 -720z" />
    <glyph glyph-name="ampersand" unicode="&#x26;" horiz-adv-x="633" 
d="M177 534c0 53 18 96 53 129c33 30 77 45 133 45c88 0 142 -55 142 -131c0 -85 -62 -140 -167 -189l95 -156c22 32 44 72 66 119l57 -82c-25 -51 -50 -91 -75 -121l88 -148h-118l-38 67c-49 -50 -114 -75 -195 -75c-55 0 -100 17 -135 51s-53 81 -53 140
c0 102 60 182 181 241c-23 41 -34 77 -34 110zM365 153l-114 193c-79 -39 -118 -91 -118 -154c0 -64 41 -104 98 -104c49 0 94 22 134 65zM350 616c-45 0 -77 -32 -77 -85c0 -21 7 -45 21 -71c21 9 38 17 51 24c27 15 61 46 61 78c0 36 -19 54 -56 54z" />
    <glyph glyph-name="quotesingle" unicode="'" horiz-adv-x="294" 
d="M192 469h-68l17 239h128z" />
    <glyph glyph-name="parenleft" unicode="(" horiz-adv-x="293" 
d="M249 750h103c-135 -165 -203 -347 -203 -544c0 -101 16 -187 48 -256h-103c-32 77 -48 165 -48 262c0 205 72 401 203 538z" />
    <glyph glyph-name="parenright" unicode=")" horiz-adv-x="293" 
d="M38 -50h-103c135 165 203 347 203 544c0 103 -16 188 -47 256h103c31 -76 47 -163 47 -262c0 -205 -72 -401 -203 -538z" />
    <glyph glyph-name="asterisk" unicode="*" horiz-adv-x="492" 
d="M259 708h88l-25 -124l127 39l17 -85l-134 -39l54 -101l-79 -51l-55 100l-92 -100l-67 51l99 101l-110 39l39 85l113 -39z" />
    <glyph glyph-name="plus" unicode="+" horiz-adv-x="579" 
d="M239 363l34 176h93l-34 -176h177l-18 -92h-177l-35 -177h-93l35 177h-176l18 92h176z" />
    <glyph glyph-name="comma" unicode="," horiz-adv-x="357" 
d="M71 -132h-77l119 260h143z" />
    <glyph glyph-name="hyphen" unicode="-" horiz-adv-x="488" 
d="M404 271h-353l17 92h353z" />
    <glyph glyph-name="period" unicode="." horiz-adv-x="291" 
d="M44 121c29 29 77 29 105 0c29 -28 29 -76 0 -105c-28 -28 -76 -28 -105 0c-28 29 -28 77 0 105z" />
    <glyph glyph-name="slash" unicode="/" horiz-adv-x="525" 
d="M-90 -50l586 800h113l-587 -800h-112z" />
    <glyph glyph-name="zero" unicode="0" horiz-adv-x="594" 
d="M365 708c124 0 196 -89 196 -253c0 -83 -12 -164 -47 -247c-48 -120 -137 -216 -285 -216c-124 0 -196 89 -196 253c0 83 13 164 46 247c50 120 138 216 286 216zM346 612c-71 0 -128 -53 -160 -128c-31 -75 -46 -154 -46 -226c0 -117 33 -170 108 -170
c71 0 128 53 159 128c32 75 47 154 47 226c0 117 -33 170 -108 170z" />
    <glyph glyph-name="one" unicode="1" horiz-adv-x="405" 
d="M92 584l217 116h44l-137 -700h-107l107 550l-146 -78z" />
    <glyph glyph-name="two" unicode="2" horiz-adv-x="549" 
d="M418 0h-429l8 44l324 340c28 29 48 53 59 72s17 43 17 72c0 52 -29 84 -78 84c-55 0 -92 -36 -113 -108l-104 19c29 113 110 185 229 185c111 0 176 -63 176 -167c0 -71 -29 -137 -88 -199l-232 -246h249z" />
    <glyph glyph-name="three" unicode="3" horiz-adv-x="551" 
d="M7 193l105 20c7 -75 47 -125 112 -125c87 0 133 61 133 152c0 76 -44 119 -107 119c-22 0 -43 -4 -63 -13l-47 59l180 199h-220l18 96h393l-7 -36l-215 -232c9 2 18 3 28 3c87 0 147 -66 147 -183c0 -75 -17 -134 -50 -176c-45 -56 -112 -84 -203 -84
c-60 0 -108 19 -145 58c-36 39 -56 87 -59 143z" />
    <glyph glyph-name="four" unicode="4" horiz-adv-x="572" 
d="M382 0h-107l28 140h-297l9 48l385 512h119l-91 -464h79l-18 -96h-79zM378 529l-214 -293h157z" />
    <glyph glyph-name="five" unicode="5" horiz-adv-x="547" 
d="M18 184l102 18v-11c0 -64 41 -103 104 -103c81 0 140 68 140 172c0 69 -36 108 -101 108c-54 0 -103 -24 -148 -72l-66 14l110 390h355l-18 -96h-262l-55 -175c29 23 65 35 108 35c117 0 184 -64 184 -196c0 -83 -24 -149 -72 -200c-47 -51 -112 -76 -194 -76
c-55 0 -100 17 -135 50s-53 75 -53 124c0 8 0 14 1 18z" />
    <glyph glyph-name="six" unicode="6" horiz-adv-x="562" 
d="M302 448c111 0 184 -74 184 -194c0 -79 -23 -142 -70 -190s-109 -72 -186 -72c-61 0 -109 17 -146 52s-55 81 -55 137c0 59 22 117 65 174l269 353h125l-205 -262c5 1 12 2 19 2zM283 352c-42 0 -77 -15 -105 -46c-28 -30 -42 -67 -42 -110c0 -65 39 -108 96 -108
c43 0 78 14 105 43c28 29 42 66 42 110c0 75 -39 111 -96 111z" />
    <glyph glyph-name="seven" unicode="7" horiz-adv-x="501" 
d="M124 700h410l-10 -48l-388 -652h-115l360 604h-276z" />
    <glyph glyph-name="eight" unicode="8" horiz-adv-x="553" 
d="M345 708c104 0 168 -61 168 -174c0 -36 -11 -69 -34 -99s-48 -50 -75 -60c40 -20 74 -73 74 -144c0 -68 -19 -123 -58 -165c-45 -49 -113 -74 -202 -74c-119 0 -196 70 -196 187c0 87 55 162 139 199c-35 31 -52 73 -52 126c0 63 25 114 74 154c41 33 95 50 162 50z
M272 320c-39 0 -73 -12 -101 -36c-28 -23 -42 -55 -42 -94c0 -60 41 -102 98 -102c41 0 75 11 102 34c28 24 42 58 42 101c0 63 -39 97 -99 97zM329 616c-32 0 -60 -11 -83 -32s-34 -47 -34 -78c0 -53 32 -87 79 -87c69 0 119 48 119 113c0 53 -34 84 -81 84z" />
    <glyph glyph-name="nine" unicode="9" horiz-adv-x="562" 
d="M263 252c-111 0 -184 74 -184 194c0 79 23 142 70 190s109 72 186 72c61 0 109 -18 146 -53s55 -80 55 -136c0 -59 -22 -117 -65 -174l-269 -353h-125l205 262c-5 -1 -12 -2 -19 -2zM282 348c42 0 77 15 105 45c28 31 42 68 42 111c0 65 -39 108 -96 108
c-43 0 -78 -15 -106 -44c-27 -29 -41 -65 -41 -109c0 -75 39 -111 96 -111z" />
    <glyph glyph-name="colon" unicode=":" horiz-adv-x="309" 
d="M57 121c29 29 77 29 105 0c29 -28 29 -76 0 -105c-28 -28 -76 -28 -105 0c-28 29 -28 77 0 105zM120 444c29 29 77 29 105 0c29 -28 29 -76 0 -105c-28 -28 -76 -28 -105 0c-28 29 -28 77 0 105z" />
    <glyph glyph-name="semicolon" unicode=";" horiz-adv-x="309" 
d="M120 444c29 29 77 29 105 0c29 -28 29 -76 0 -105c-28 -28 -76 -28 -105 0c-28 29 -28 77 0 105zM12 -132h-77l119 260h143z" />
    <glyph glyph-name="less" unicode="&#x3c;" horiz-adv-x="465" 
d="M399 66l-364 192v104l364 192v-111l-253 -133l253 -133v-111z" />
    <glyph glyph-name="equal" unicode="=" horiz-adv-x="591" 
d="M494 347h-415v92h415v-92zM494 181h-415v92h415v-92z" />
    <glyph glyph-name="greater" unicode="&#x3e;" horiz-adv-x="465" 
d="M66 554l364 -192v-104l-364 -192v111l253 133l-253 133v111z" />
    <glyph glyph-name="question" unicode="?" horiz-adv-x="452" 
d="M268 345l79 -26c-36 -85 -80 -112 -159 -112c-67 0 -115 42 -115 111c0 59 37 105 112 136l95 40c40 17 57 37 57 76c0 33 -24 54 -60 54c-49 0 -87 -30 -112 -91l-94 24c33 93 110 151 213 151c100 0 156 -51 156 -130c0 -63 -34 -111 -103 -142l-117 -53
c-29 -12 -51 -25 -54 -60c0 -23 16 -37 36 -37c29 0 46 19 66 59zM104 17c-28 29 -28 79 0 107c29 29 81 29 109 0c29 -28 29 -78 0 -107c-28 -28 -80 -28 -109 0z" />
    <glyph glyph-name="at" unicode="@" horiz-adv-x="910" 
d="M590 466l17 43h76l-53 -246c-4 -16 -6 -28 -6 -35c0 -19 13 -28 39 -28c62 0 93 57 93 172c0 165 -96 254 -260 254c-97 0 -177 -32 -240 -95s-94 -149 -94 -256c0 -88 26 -156 78 -205c52 -48 118 -72 197 -72c50 0 94 5 133 14s85 27 140 53l29 -90
c-61 -26 -112 -44 -155 -54c-42 -10 -93 -15 -154 -15c-108 0 -197 32 -268 97c-70 65 -105 152 -105 261c0 140 42 251 126 332c85 81 195 122 330 122c99 0 180 -29 245 -88c65 -58 98 -138 98 -241c0 -85 -17 -153 -52 -204c-34 -51 -88 -77 -161 -77
c-45 0 -89 28 -104 67c-35 -45 -82 -67 -141 -67c-101 0 -159 65 -159 170c0 71 21 129 64 172c43 44 99 66 170 66c53 0 101 -19 117 -50zM468 424c-36 0 -67 -14 -92 -41s-38 -60 -38 -97c0 -52 28 -86 79 -86c38 0 69 13 94 40s37 60 37 99c0 56 -31 85 -80 85z" />
    <glyph glyph-name="A" unicode="A" horiz-adv-x="594" 
d="M-61 0l377 700h107l107 -700h-114l-23 174h-248l-91 -174h-115zM381 278l-37 283l-145 -283h182z" />
    <glyph glyph-name="B" unicode="B" horiz-adv-x="617" 
d="M30 0l137 700h231c109 0 182 -59 182 -159c0 -75 -34 -128 -102 -161c45 -19 78 -68 78 -141c0 -79 -23 -139 -69 -179c-45 -40 -104 -60 -177 -60h-280zM385 596h-128l-33 -172h128c65 0 115 35 115 100c0 48 -27 72 -82 72zM342 320h-138l-42 -216h135
c91 0 147 41 147 124c0 61 -34 92 -102 92z" />
    <glyph glyph-name="C" unicode="C" horiz-adv-x="675" 
d="M669 491l-109 -26c-15 96 -58 139 -146 139c-53 0 -101 -16 -143 -48c-84 -64 -126 -165 -126 -269c0 -128 61 -191 170 -191c87 0 141 43 196 138l99 -30c-65 -145 -166 -212 -315 -212c-76 0 -139 26 -189 77s-75 121 -75 208c0 111 39 217 106 297
c67 81 174 134 297 134c141 0 224 -88 235 -217z" />
    <glyph glyph-name="D" unicode="D" horiz-adv-x="672" 
d="M30 0l137 700h187c84 0 151 -25 202 -76c51 -50 77 -124 77 -221c0 -116 -37 -212 -111 -289c-74 -76 -169 -114 -284 -114h-208zM323 596h-67l-95 -492h69c86 0 156 27 209 81c53 55 80 124 80 208c0 135 -65 203 -196 203z" />
    <glyph glyph-name="E" unicode="E" horiz-adv-x="567" 
d="M30 0l137 700h409l-21 -104h-298l-33 -172h239l-20 -104h-239l-42 -216h308l-21 -104h-419z" />
    <glyph glyph-name="F" unicode="F" horiz-adv-x="554" 
d="M30 0l136 700h415l-21 -104h-304l-35 -181h243l-20 -104h-243l-61 -311h-110z" />
    <glyph glyph-name="G" unicode="G" horiz-adv-x="700" 
d="M572 0h-93l6 87c-47 -63 -112 -95 -196 -95c-73 0 -135 25 -184 75s-74 118 -74 205c0 81 15 154 46 219c61 131 188 217 348 217c71 0 127 -20 169 -60c42 -39 65 -91 68 -154l-107 -31c-19 101 -65 141 -150 141c-79 0 -143 -31 -190 -92s-70 -135 -70 -223
c0 -120 63 -193 170 -193c96 0 166 64 198 160h-137l19 97h246z" />
    <glyph glyph-name="H" unicode="H" horiz-adv-x="696" 
d="M141 0h-111l137 700h111l-54 -274h277l54 274h111l-137 -700h-111l63 322h-277z" />
    <glyph glyph-name="I" unicode="I" horiz-adv-x="308" 
d="M141 0h-111l137 700h111z" />
    <glyph glyph-name="J" unicode="J" horiz-adv-x="549" 
d="M320 222l93 478h111l-100 -504c-15 -75 -45 -128 -91 -161c-39 -29 -91 -43 -155 -43c-55 0 -98 19 -131 57s-49 83 -49 136l110 22c0 -67 28 -111 84 -111c69 0 111 42 128 126z" />
    <glyph glyph-name="K" unicode="K" horiz-adv-x="614" 
d="M30 0l137 700h111l-52 -265l278 265h143l-336 -315l229 -385h-136l-196 343l-67 -343h-111z" />
    <glyph glyph-name="L" unicode="L" horiz-adv-x="511" 
d="M30 0l136 700h111l-116 -596h296l-21 -104h-406z" />
    <glyph glyph-name="M" unicode="M" horiz-adv-x="792" 
d="M141 0h-111l137 700h131l77 -466l246 466h141l-137 -700h-111l88 456l-215 -392h-84l-70 408z" />
    <glyph glyph-name="N" unicode="N" horiz-adv-x="708" 
d="M469 196l98 504h111l-137 -700h-119l-183 502l-98 -502h-111l137 700h119z" />
    <glyph glyph-name="O" unicode="O" horiz-adv-x="727" 
d="M429 708c73 0 134 -25 184 -75c50 -49 75 -119 75 -210c0 -143 -47 -257 -142 -340c-69 -61 -154 -91 -256 -91c-73 0 -134 25 -184 74c-50 50 -75 120 -75 211c0 143 47 257 142 340c69 61 154 91 256 91zM409 604c-75 0 -137 -30 -186 -89c-51 -63 -77 -139 -77 -228
c0 -123 63 -191 164 -191c75 0 137 30 186 89c51 63 77 139 77 228c0 123 -63 191 -164 191z" />
    <glyph glyph-name="P" unicode="P" horiz-adv-x="591" 
d="M324 286h-127l-56 -286h-111l137 700h233c121 0 194 -63 194 -174c0 -156 -105 -240 -270 -240zM257 596l-40 -206h135c73 0 128 49 128 121c0 57 -30 85 -90 85h-133z" />
    <glyph glyph-name="Q" unicode="Q" horiz-adv-x="727" 
d="M428 708c73 0 134 -25 184 -75c50 -49 75 -119 75 -210c0 -115 -32 -213 -96 -292l53 -65l-88 -74l-50 61c-59 -41 -131 -61 -217 -61c-73 0 -134 25 -184 74c-50 50 -75 120 -75 211c0 143 47 257 142 340c69 61 154 91 256 91zM440 135l-69 84l89 74l59 -74
c35 57 53 121 53 194c0 123 -63 191 -164 191c-75 0 -137 -30 -186 -89c-51 -63 -77 -139 -77 -228c0 -123 63 -191 164 -191c49 0 92 13 131 39z" />
    <glyph glyph-name="R" unicode="R" horiz-adv-x="607" 
d="M587 539c0 -59 -17 -108 -52 -145s-77 -61 -127 -72l138 -322h-126l-134 314h-83l-62 -314h-111l137 700h235c120 0 185 -61 185 -161zM257 596l-34 -178h125c71 0 124 39 124 104c0 47 -30 74 -82 74h-133z" />
    <glyph glyph-name="S" unicode="S" horiz-adv-x="533" 
d="M501 585l-97 -51c-17 49 -47 74 -91 74c-49 0 -87 -33 -87 -88c0 -28 11 -51 36 -71c27 -19 41 -27 80 -46c87 -41 127 -86 127 -182c0 -74 -23 -130 -69 -169c-47 -40 -109 -60 -185 -60c-55 0 -101 18 -140 55c-38 37 -58 84 -59 140l95 53c7 -89 53 -144 126 -144
c69 0 118 40 118 111c0 55 -34 86 -105 121c-91 45 -137 106 -137 184c0 124 88 196 217 196c41 0 77 -12 108 -37s52 -53 63 -86z" />
    <glyph glyph-name="T" unicode="T" horiz-adv-x="513" 
d="M247 596h-191l21 104h493l-21 -104h-191l-116 -596h-111z" />
    <glyph glyph-name="U" unicode="U" horiz-adv-x="675" 
d="M73 262l85 438h111l-88 -453c-3 -19 -5 -34 -5 -47c0 -69 38 -104 113 -104c87 0 146 52 165 151l88 453h111l-87 -448c-37 -191 -134 -260 -297 -260c-127 0 -205 68 -205 199c0 15 3 38 9 71z" />
    <glyph glyph-name="V" unicode="V" horiz-adv-x="576" 
d="M643 700l-372 -700h-112l-102 700h116l67 -546l283 546h120z" />
    <glyph glyph-name="W" unicode="W" horiz-adv-x="898" 
d="M587 162l235 538h116l-320 -700h-113l-49 435l-211 -435h-113l-48 700h116l20 -538l218 464h103z" />
    <glyph glyph-name="X" unicode="X" horiz-adv-x="560" 
d="M314 481l164 219h128l-251 -327l141 -373h-119l-103 273l-203 -273h-128l292 382l-120 318h118z" />
    <glyph glyph-name="Y" unicode="Y" horiz-adv-x="500" 
d="M177 300l-125 400h118l81 -291l195 291h123l-281 -400l-59 -300h-111z" />
    <glyph glyph-name="Z" unicode="Z" horiz-adv-x="567" 
d="M401 596h-300l21 104h452l-11 -54l-412 -542h324l-21 -104h-479l11 54z" />
    <glyph glyph-name="bracketleft" unicode="[" horiz-adv-x="336" 
d="M228 -50h-208l154 800h209l-18 -94h-108l-119 -612h108z" />
    <glyph glyph-name="backslash" unicode="\" horiz-adv-x="479" 
d="M329 -50l-281 800h105l281 -800h-105z" />
    <glyph glyph-name="bracketright" unicode="]" horiz-adv-x="336" 
d="M134 750h209l-155 -800h-208l17 94h108l119 612h-108z" />
    <glyph glyph-name="asciicircum" unicode="^" horiz-adv-x="591" 
d="M67 413l191 287h88l191 -287h-103l-132 195l-132 -195h-103z" />
    <glyph glyph-name="underscore" unicode="_" horiz-adv-x="494" 
d="M398 -92h-445l17 92h445z" />
    <glyph glyph-name="grave" unicode="`" horiz-adv-x="215" 
d="M52 708h143l41 -148h-82z" />
    <glyph glyph-name="a" unicode="a" horiz-adv-x="596" 
d="M308 512c55 0 102 -25 122 -64l10 56h105l-97 -504h-105l11 58c-37 -44 -85 -66 -146 -66c-57 0 -102 20 -135 59c-32 39 -48 88 -48 145c0 93 25 168 75 227c51 59 120 89 208 89zM138 221c0 -87 39 -137 102 -137c51 0 90 21 119 62c29 42 44 91 44 148
c0 84 -35 126 -105 126c-49 0 -88 -20 -117 -61c-29 -40 -43 -86 -43 -138z" />
    <glyph glyph-name="b" unicode="b" horiz-adv-x="604" 
d="M544 298c0 -87 -24 -159 -72 -218s-115 -88 -202 -88c-56 0 -113 31 -130 66l-12 -58h-105l138 708h105l-50 -260c38 43 86 64 144 64c109 0 184 -78 184 -214zM265 84c50 0 90 21 120 63c31 43 46 91 46 144c0 85 -37 129 -101 129c-48 0 -87 -21 -118 -63
c-31 -41 -46 -91 -46 -149c0 -73 44 -124 99 -124z" />
    <glyph glyph-name="c" unicode="c" horiz-adv-x="547" 
d="M376 176l86 -39c-67 -105 -136 -145 -244 -145c-119 0 -193 84 -193 215c0 53 11 103 34 148c45 92 141 157 260 157c104 0 168 -52 188 -140l-98 -39c-18 58 -54 87 -108 87c-49 0 -88 -21 -119 -62s-46 -90 -46 -145c0 -83 36 -129 100 -129c54 0 101 31 140 92z" />
    <glyph glyph-name="d" unicode="d" horiz-adv-x="617" 
d="M306 512c60 0 103 -20 129 -61l49 257h105l-138 -708h-105l12 58c-31 -37 -87 -66 -150 -66c-116 0 -183 80 -183 201c0 92 25 168 75 228c50 61 119 91 206 91zM138 212c0 -76 41 -128 102 -128c36 0 67 12 93 36c53 48 73 113 73 174c0 81 -38 126 -101 126
c-51 0 -91 -21 -122 -64c-30 -43 -45 -91 -45 -144z" />
    <glyph glyph-name="e" unicode="e" horiz-adv-x="561" 
d="M299 420c-67 0 -123 -45 -147 -110h251c0 65 -33 110 -104 110zM505 268l-9 -45h-363c-2 -11 -3 -22 -3 -33c0 -63 36 -106 108 -106c57 0 107 31 150 92l80 -42c-68 -101 -137 -142 -252 -142c-61 0 -108 20 -142 60s-51 92 -51 155c0 80 27 151 82 212
c55 62 126 93 212 93c123 0 193 -78 193 -193c0 -15 -2 -32 -5 -51z" />
    <glyph glyph-name="f" unicode="f" horiz-adv-x="345" 
d="M102 412h-65l18 92h65l7 37c21 111 86 167 195 167c32 0 59 -6 82 -18l-38 -88c-17 9 -34 14 -52 14c-46 0 -73 -24 -82 -73l-7 -39h110l-18 -92h-110l-80 -412h-105z" />
    <glyph glyph-name="g" unicode="g" horiz-adv-x="522" 
d="M84 312c0 57 19 105 57 143s88 57 150 57c40 0 73 -7 98 -22l98 50l34 -73l-79 -39c7 -17 10 -36 10 -58c0 -124 -85 -196 -210 -196c-29 0 -57 6 -85 17c-24 -13 -36 -29 -36 -49c0 -24 15 -36 45 -36h111c89 0 143 -42 143 -129c0 -63 -23 -111 -70 -142
s-107 -47 -181 -47c-120 0 -195 55 -195 143c0 51 21 93 64 126c-13 19 -20 41 -20 65c0 45 29 83 87 116c-14 22 -21 47 -21 74zM238 18h-81c-18 0 -35 1 -50 3c-20 -15 -30 -38 -30 -68c0 -49 34 -73 102 -73c87 0 131 27 131 81c0 38 -24 57 -72 57zM284 424
c-56 0 -97 -38 -97 -93c0 -44 25 -70 65 -70c55 0 97 40 97 95c0 44 -25 68 -65 68z" />
    <glyph glyph-name="h" unicode="h" horiz-adv-x="588" 
d="M24 0l137 708h105l-56 -290c51 63 112 94 182 94c76 0 125 -43 125 -112c0 -12 -2 -27 -5 -45l-69 -355h-105l63 328c3 13 4 25 4 36c0 37 -20 56 -61 56c-35 0 -69 -19 -104 -56s-58 -88 -70 -151l-41 -213h-105z" />
    <glyph glyph-name="i" unicode="i" horiz-adv-x="287" 
d="M24 0l98 504h105l-98 -504h-105zM151 595c-27 28 -27 74 1 102c28 29 74 29 102 0c28 -28 28 -74 0 -102c-27 -27 -75 -27 -103 0z" />
    <glyph glyph-name="j" unicode="j" horiz-adv-x="287" 
d="M-81 -212l-9 101c77 19 116 48 131 124l95 491h105l-104 -536c-21 -111 -95 -163 -218 -180zM165 595c-27 28 -27 74 1 102c28 29 74 29 102 0c28 -28 28 -74 0 -102c-27 -27 -75 -27 -103 0z" />
    <glyph glyph-name="k" unicode="k" horiz-adv-x="520" 
d="M24 0l137 708h105l-76 -400l194 196h137l-240 -234l160 -270h-129l-136 241l-47 -241h-105z" />
    <glyph glyph-name="l" unicode="l" horiz-adv-x="305" 
d="M32 0l137 708h105l-137 -708h-105z" />
    <glyph glyph-name="m" unicode="m" horiz-adv-x="854" 
d="M24 0l98 504h105l-16 -81c37 55 98 89 162 89c68 0 108 -32 119 -97c45 65 102 97 171 97c84 0 120 -38 120 -114c0 -11 -1 -23 -4 -37l-70 -361h-105l65 338c2 12 3 20 3 24c0 39 -20 58 -61 58c-64 0 -126 -83 -153 -218l-39 -202h-105l65 338c2 12 3 20 3 24
c0 39 -18 58 -55 58c-30 0 -60 -18 -91 -54c-30 -36 -51 -82 -62 -138l-45 -228h-105z" />
    <glyph glyph-name="n" unicode="n" horiz-adv-x="579" 
d="M24 0l98 504h105l-15 -80c45 59 103 88 172 88c77 0 124 -44 124 -112c0 -15 -2 -32 -6 -51l-68 -349h-105l63 328c3 13 4 23 4 32c0 40 -19 60 -58 60c-34 0 -67 -18 -100 -54s-54 -82 -65 -137l-44 -229h-105z" />
    <glyph glyph-name="o" unicode="o" horiz-adv-x="588" 
d="M25 209c0 93 26 165 79 218c56 57 128 85 216 85c63 0 113 -21 151 -62s57 -93 57 -155c0 -93 -26 -165 -79 -218c-56 -57 -128 -85 -216 -85c-63 0 -113 21 -151 62s-57 93 -57 155zM306 420c-49 0 -90 -21 -123 -63c-31 -39 -46 -85 -46 -138c0 -84 43 -135 110 -135
c49 0 90 21 123 63c31 39 46 85 46 138c0 84 -43 135 -110 135z" />
    <glyph glyph-name="p" unicode="p" horiz-adv-x="610" 
d="M269 -8c-60 0 -103 20 -129 61l-49 -257h-105l138 708h105l-12 -58c31 37 87 66 150 66c116 0 183 -80 183 -201c0 -92 -25 -168 -75 -229c-50 -60 -119 -90 -206 -90zM437 292c0 76 -41 128 -102 128c-36 0 -67 -12 -94 -36c-52 -48 -72 -113 -72 -174
c0 -81 38 -126 101 -126c51 0 91 21 121 64c31 43 46 91 46 144z" />
    <glyph glyph-name="q" unicode="q" horiz-adv-x="593" 
d="M25 206c0 87 24 159 72 218s115 88 202 88c56 0 113 -31 130 -66l12 58h105l-138 -708h-105l50 260c-38 -43 -86 -64 -144 -64c-109 0 -184 78 -184 214zM304 420c-50 0 -90 -21 -121 -64c-30 -42 -45 -90 -45 -143c0 -85 37 -129 101 -129c48 0 87 21 118 62
c31 42 46 92 46 150c0 73 -44 124 -99 124z" />
    <glyph glyph-name="r" unicode="r" horiz-adv-x="443" 
d="M170 213l-41 -213h-105l98 504h105l-16 -81c44 59 99 89 166 89c23 0 43 -4 62 -12l-37 -95c-17 10 -35 15 -56 15c-35 0 -70 -18 -105 -54s-58 -87 -71 -153z" />
    <glyph glyph-name="s" unicode="s" horiz-adv-x="458" 
d="M263 512c67 0 123 -32 147 -84l-77 -58c-22 33 -49 50 -81 50c-36 0 -59 -19 -59 -52c0 -29 20 -43 75 -68c37 -17 54 -27 78 -50c25 -21 37 -51 37 -90c0 -112 -72 -168 -184 -168c-53 0 -97 14 -130 43s-53 63 -58 101l89 40c12 -53 47 -92 102 -92c48 0 78 23 78 66
c0 32 -32 54 -89 79c-67 29 -101 73 -101 131c0 96 66 152 173 152z" />
    <glyph glyph-name="t" unicode="t" horiz-adv-x="363" 
d="M110 412h-85l17 92h85l26 139l117 65l-40 -204h126l-17 -92h-126l-48 -246c-2 -11 -3 -21 -3 -31c0 -34 18 -51 54 -51c16 0 33 5 51 14l9 -88c-27 -12 -58 -18 -95 -18c-79 0 -124 47 -124 128c0 19 2 36 5 52z" />
    <glyph glyph-name="u" unicode="u" horiz-adv-x="582" 
d="M531 504l-98 -504h-105l15 80c-45 -59 -103 -88 -172 -88c-77 0 -124 44 -124 112c0 15 2 32 6 51l68 349h105l-63 -328c-3 -13 -4 -23 -4 -32c0 -40 19 -60 58 -60c34 0 67 18 100 54s54 82 65 137l44 229h105z" />
    <glyph glyph-name="v" unicode="v" horiz-adv-x="446" 
d="M98 0l-73 504h105l39 -370l181 370h111l-260 -504h-103z" />
    <glyph glyph-name="w" unicode="w" horiz-adv-x="737" 
d="M461 136l162 368h112l-251 -504h-99l-18 354l-159 -354h-98l-59 504h110l21 -364l160 364h103z" />
    <glyph glyph-name="x" unicode="x" horiz-adv-x="476" 
d="M249 354l113 150h121l-194 -241l109 -263h-110l-68 174l-137 -174h-122l218 273l-100 231h112z" />
    <glyph glyph-name="y" unicode="y" horiz-adv-x="479" 
d="M117 29l-83 475h111l53 -339l176 339h115l-391 -708h-105z" />
    <glyph glyph-name="z" unicode="z" horiz-adv-x="462" 
d="M274 412h-202l17 92h353l-8 -42l-275 -370h221l-17 -92h-374l7 42z" />
    <glyph glyph-name="braceleft" unicode="{" horiz-adv-x="332" 
d="M65 46l34 181c3 13 4 24 4 32c0 33 -17 44 -73 44l19 94c67 0 85 16 97 76l36 181c12 57 51 96 112 96h72l-18 -94h-25c-29 0 -43 -11 -48 -42l-34 -174c-12 -64 -43 -82 -90 -90c38 -7 57 -29 57 -66c0 -11 -1 -22 -4 -33l-32 -165c-1 -8 -2 -13 -2 -16
c0 -19 9 -26 34 -26h25l-18 -94h-73c-49 0 -75 30 -75 77c0 3 1 10 2 19z" />
    <glyph glyph-name="bar" unicode="|" horiz-adv-x="287" 
d="M95 -50v800h100v-800h-100z" />
    <glyph glyph-name="braceright" unicode="}" horiz-adv-x="332" 
d="M265 654l-34 -181c-3 -13 -4 -24 -4 -32c0 -33 17 -44 73 -44l-19 -94c-67 0 -85 -16 -97 -76l-36 -181c-12 -57 -51 -96 -112 -96h-72l18 94h25c29 0 43 11 48 42l34 174c12 64 43 82 90 90c-38 7 -57 29 -57 66c0 11 1 22 4 33l32 165c1 8 2 13 2 16c0 19 -9 26 -34 26
h-25l18 94h73c49 0 75 -30 75 -77c0 -3 -1 -10 -2 -19z" />
    <glyph glyph-name="asciitilde" unicode="~" horiz-adv-x="644" 
d="M105 257l-46 60c44 67 98 101 162 101c30 0 63 -9 100 -26s66 -26 88 -26c33 0 66 16 99 47l46 -60c-44 -67 -98 -101 -162 -101c-29 0 -63 9 -100 26s-66 26 -88 26c-33 0 -66 -16 -99 -47z" />
    <glyph glyph-name="uni00A0" unicode="&#xa0;" horiz-adv-x="227" 
 />
    <glyph glyph-name="exclamdown" unicode="&#xa1;" horiz-adv-x="269" 
d="M92 275l-66 -479h-142l119 479h89zM131 478c29 -28 29 -78 0 -107c-28 -28 -80 -28 -109 0c-28 29 -28 79 0 107c29 29 81 29 109 0z" />
    <glyph glyph-name="cent" unicode="&#xa2;" horiz-adv-x="558" 
d="M406 276l86 -39c-56 -89 -114 -131 -195 -142l-28 -144h-100l28 146c-89 21 -142 99 -142 210c0 73 22 139 65 196s102 92 176 104l28 144h100l-28 -143c77 -14 124 -59 141 -136l-98 -39c-18 58 -54 87 -108 87c-49 0 -88 -21 -119 -62s-46 -90 -46 -145
c0 -83 36 -129 100 -129c54 0 101 31 140 92z" />
    <glyph glyph-name="sterling" unicode="&#xa3;" horiz-adv-x="562" 
d="M135 314h-80l20 100h45c-1 19 -2 35 -2 49c0 156 92 245 241 245c97 0 161 -50 180 -138l-95 -41c-14 53 -47 79 -98 79c-85 0 -125 -68 -125 -159c0 -2 1 -14 2 -35h167l-19 -100h-138c0 -95 -32 -158 -113 -215c33 19 62 28 89 28c17 0 36 -6 57 -18
c21 -11 38 -17 51 -17c17 0 33 4 46 13s31 27 54 54l62 -61c-60 -81 -106 -106 -177 -106c-29 0 -57 6 -85 17c-27 12 -48 18 -62 18c-40 0 -81 -12 -122 -35l-48 69c95 75 151 139 151 234c0 9 0 15 -1 19z" />
    <glyph glyph-name="currency" unicode="&#xa4;" horiz-adv-x="575" 
d="M443 199l88 -67l-83 -83l-67 87c-31 -21 -67 -31 -108 -31s-77 10 -108 31l-67 -87l-83 83l88 67c-40 65 -40 151 0 216l-88 67l83 83l67 -87c31 21 67 31 108 31s77 -10 108 -31l67 87l83 -83l-88 -67c40 -65 40 -151 0 -216zM343 231c18 19 27 45 27 76s-9 57 -27 76
c-17 19 -41 29 -70 29s-53 -10 -71 -29c-17 -19 -26 -45 -26 -76s9 -57 26 -76c18 -19 42 -29 71 -29s53 10 70 29z" />
    <glyph glyph-name="yen" unicode="&#xa5;" horiz-adv-x="571" 
d="M206 392l-91 308h119l72 -290l194 290h120l-214 -308h105l-18 -92h-150l-13 -67h150l-18 -92h-150l-28 -141h-110l28 141h-150l18 92h150l13 67h-150l18 92h105z" />
    <glyph glyph-name="brokenbar" unicode="&#xa6;" horiz-adv-x="257" 
d="M95 -50v349h100v-349h-100zM195 750v-349h-100v349h100z" />
    <glyph glyph-name="section" unicode="&#xa7;" horiz-adv-x="584" 
d="M484 236c0 -79 -39 -118 -103 -154c17 -32 25 -65 25 -98c0 -121 -82 -196 -203 -196c-104 0 -169 63 -181 154l98 30c13 -56 44 -84 93 -84s88 30 88 93c-4 39 -12 60 -43 82c-11 8 -20 14 -27 18c-7 5 -18 11 -34 20c-15 9 -27 15 -34 19c-62 36 -93 83 -93 140
c0 77 39 118 103 154c-17 32 -25 65 -25 98c0 121 82 196 203 196c104 0 169 -63 181 -154l-98 -30c-13 56 -44 84 -93 84s-88 -30 -88 -93c3 -39 13 -60 42 -82l27 -19c7 -4 19 -10 34 -19l35 -19c62 -36 93 -83 93 -140zM321 138c35 15 63 30 67 87c0 23 -11 42 -35 61
c-11 9 -22 17 -33 23c-11 7 -25 15 -44 25s-33 18 -43 24c-35 -15 -63 -30 -67 -87c0 -23 11 -42 34 -61c12 -9 23 -17 34 -24l44 -24c19 -10 33 -18 43 -24z" />
    <glyph glyph-name="dieresis" unicode="&#xa8;" horiz-adv-x="328" 
d="M73 606c-24 24 -24 66 0 90s66 24 90 0s24 -66 0 -90s-66 -24 -90 0zM258 606c-24 24 -24 66 0 90s66 24 90 0s24 -66 0 -90s-66 -24 -90 0z" />
    <glyph glyph-name="copyright" unicode="&#xa9;" horiz-adv-x="900" 
d="M176 72c-73 75 -109 167 -109 278s36 203 109 278s165 112 274 112s200 -37 273 -112s110 -167 110 -278s-37 -203 -110 -278s-164 -112 -273 -112s-201 37 -274 112zM243 563c-53 -57 -80 -128 -80 -213s27 -156 80 -213s122 -85 207 -85s154 28 207 85s80 128 80 213
s-27 156 -80 213s-122 85 -207 85s-154 -28 -207 -85zM543 288l85 -19c-13 -84 -87 -135 -178 -135c-55 0 -102 19 -141 56c-39 38 -58 91 -58 160s19 122 58 159c39 38 86 57 141 57c91 0 165 -51 178 -135l-85 -19c-15 47 -46 70 -93 70c-63 0 -105 -48 -105 -132
s42 -132 105 -132c47 0 78 23 93 70z" />
    <glyph glyph-name="ordfeminine" unicode="&#xaa;" horiz-adv-x="421" 
d="M56 416c0 81 68 130 171 130h68v17c0 48 -32 69 -79 69c-39 0 -64 -17 -75 -52l-69 15c15 68 68 109 144 109c107 0 161 -52 161 -156v-248h-68l-9 54c-28 -39 -69 -58 -122 -58c-71 0 -122 41 -122 120zM142 416c0 -32 17 -48 50 -48c55 0 103 37 103 101v11h-71
c-49 0 -82 -25 -82 -64z" />
    <glyph glyph-name="guillemotleft" unicode="&#xab;" horiz-adv-x="679" 
d="M284 68l-252 208l15 74l332 202l-24 -121l-210 -124l160 -132zM564 68l-252 208l15 74l332 202l-24 -121l-210 -124l160 -132z" />
    <glyph glyph-name="logicalnot" unicode="&#xac;" horiz-adv-x="551" 
d="M384 305h-345v92h449v-255h-104v163z" />
    <glyph glyph-name="uni00AD" unicode="&#xad;" horiz-adv-x="488" 
d="M404 271h-353l17 92h353z" />
    <glyph glyph-name="registered" unicode="&#xae;" horiz-adv-x="900" 
d="M176 72c-73 75 -109 167 -109 278s36 203 109 278s165 112 274 112s200 -37 273 -112s110 -167 110 -278s-37 -203 -110 -278s-164 -112 -273 -112s-201 37 -274 112zM243 563c-53 -57 -80 -128 -80 -213s27 -156 80 -213s122 -85 207 -85s154 28 207 85s80 128 80 213
s-27 156 -80 213s-122 85 -207 85s-154 -28 -207 -85zM636 137h-98l-122 182h-25v-182h-86v426h158c89 0 138 -43 138 -122c0 -65 -36 -106 -92 -118zM462 483h-71v-84h71c36 0 54 14 54 42s-18 42 -54 42z" />
    <glyph glyph-name="overscore" unicode="&#xaf;" horiz-adv-x="291" 
d="M321 626h-257l19 94h257z" />
    <glyph glyph-name="degree" unicode="&#xb0;" horiz-adv-x="350" 
d="M130 513c-21 21 -32 48 -32 80s11 58 32 79s49 32 82 32s61 -11 82 -32s32 -47 32 -79s-11 -59 -32 -80s-49 -31 -82 -31s-61 10 -82 31zM182 623c-15 -15 -15 -45 0 -61c15 -15 45 -15 60 0c15 16 15 46 0 61c-15 16 -45 16 -60 0z" />
    <glyph glyph-name="plusminus" unicode="&#xb1;" horiz-adv-x="659" 
d="M326 445l34 176h93l-34 -176h177l-18 -92h-177l-35 -177h-93l35 177h-176l18 92h176zM508 0h-445l17 92h445z" />
    <glyph glyph-name="uni00B2" unicode="&#xb2;" horiz-adv-x="386" 
d="M339 300h-265l6 30l184 186c26 26 39 51 39 74c0 28 -13 42 -38 42s-51 -21 -63 -60l-72 20c16 67 74 112 146 112c65 0 110 -40 110 -99c0 -51 -13 -79 -50 -116l-117 -117h134z" />
    <glyph glyph-name="uni00B3" unicode="&#xb3;" horiz-adv-x="428" 
d="M90 417l72 10c3 -39 23 -59 60 -59c39 0 69 28 69 73c0 52 -45 69 -86 43l-27 47l90 97h-123l14 72h238l-6 -29l-114 -120c56 0 95 -42 95 -102c0 -91 -59 -153 -155 -153c-81 0 -127 50 -127 121z" />
    <glyph glyph-name="acute" unicode="&#xb4;" horiz-adv-x="225" 
d="M127 560h-83l98 148h143z" />
    <glyph glyph-name="mu" unicode="&#xb5;" horiz-adv-x="583" 
d="M483 504v-504h-104v86c-39 -63 -93 -94 -163 -94c-15 0 -29 2 -44 5v-201h-104v708h104v-328c0 -61 26 -92 78 -92c35 0 65 19 90 58c26 39 39 92 39 158v204h104z" />
    <glyph glyph-name="mu" unicode="&#x3bc;" horiz-adv-x="583" 
d="M483 504v-504h-104v86c-39 -63 -93 -94 -163 -94c-15 0 -29 2 -44 5v-201h-104v708h104v-328c0 -61 26 -92 78 -92c35 0 65 19 90 58c26 39 39 92 39 158v204h104z" />
    <glyph glyph-name="paragraph" unicode="&#xb6;" horiz-adv-x="715" 
d="M76 471c0 71 24 126 73 167s110 62 181 62h367l-18 -92h-64l-157 -812h-103l157 812h-97l-157 -812h-103l94 484c-51 0 -92 18 -125 53c-32 36 -48 82 -48 138z" />
    <glyph glyph-name="middot" unicode="&#xb7;" horiz-adv-x="290" 
d="M97 421c29 29 77 29 105 0c29 -28 29 -76 0 -105c-28 -28 -76 -28 -105 0c-28 29 -28 77 0 105z" />
    <glyph glyph-name="cedilla" unicode="&#xb8;" horiz-adv-x="207" 
d="M81 -60h81l-115 -191l-110 56z" />
    <glyph glyph-name="uni00B9" unicode="&#xb9;" horiz-adv-x="335" 
d="M106 637l143 63h31l-77 -400h-78l56 292l-91 -40z" />
    <glyph glyph-name="ordmasculine" unicode="&#xba;" horiz-adv-x="441" 
d="M109 355c-35 39 -53 88 -53 145s18 106 53 145s83 59 142 59s106 -20 141 -59s53 -88 53 -145s-18 -106 -53 -145s-82 -59 -141 -59s-107 20 -142 59zM171 593c-19 -26 -29 -57 -29 -93s10 -67 29 -93s46 -39 80 -39s60 13 79 39s29 57 29 93s-10 67 -29 93
s-45 39 -79 39s-61 -13 -80 -39z" />
    <glyph glyph-name="guillemotright" unicode="&#xbb;" horiz-adv-x="679" 
d="M394 552l252 -208l-15 -74l-332 -202l24 121l210 124l-160 132zM114 552l252 -208l-15 -74l-332 -202l24 121l210 124l-160 132z" />
    <glyph glyph-name="onequarter" unicode="&#xbc;" horiz-adv-x="899" 
d="M117 637l143 63h31l-77 -400h-78l56 292l-91 -40zM74 15l678 720l51 -49l-678 -720zM673 0h-78l13 71h-174l7 35l217 294h92l-50 -257h48l-14 -72h-48zM650 286l-102 -143h74z" />
    <glyph glyph-name="onehalf" unicode="&#xbd;" horiz-adv-x="939" 
d="M128 637l143 63h31l-77 -400h-78l56 292l-91 -40zM74 15l678 720l51 -49l-678 -720zM788 0h-265l6 30l184 186c26 26 39 51 39 74c0 28 -13 42 -38 42s-51 -21 -63 -60l-72 20c16 67 74 112 146 112c65 0 110 -40 110 -99c0 -51 -13 -79 -50 -116l-117 -117h134z" />
    <glyph glyph-name="threequarters" unicode="&#xbe;" horiz-adv-x="963" 
d="M138 15l678 720l51 -49l-678 -720zM90 417l72 10c3 -39 23 -59 60 -59c39 0 69 28 69 73c0 52 -45 69 -86 43l-27 47l90 97h-123l14 72h238l-6 -29l-114 -120c56 0 95 -42 95 -102c0 -91 -59 -153 -155 -153c-81 0 -127 50 -127 121zM727 0h-78l13 71h-174l7 35l217 294
h92l-50 -257h48l-14 -72h-48zM704 286l-102 -143h74z" />
    <glyph glyph-name="questiondown" unicode="&#xbf;" horiz-adv-x="369" 
d="M30 151l-79 26c36 85 80 112 159 112c67 0 115 -42 115 -111c0 -59 -37 -105 -112 -136l-95 -40c-40 -17 -57 -37 -57 -76c0 -33 24 -54 60 -54c49 0 87 30 112 91l94 -24c-33 -93 -110 -151 -213 -151c-100 0 -156 51 -156 130c0 63 34 111 103 142l117 53
c28 12 51 25 54 60c0 23 -16 37 -36 37c-29 0 -46 -19 -66 -59zM193 478c29 -28 29 -78 0 -107c-28 -28 -80 -28 -109 0c-28 29 -28 79 0 107c29 29 81 29 109 0z" />
    <glyph glyph-name="Agrave" unicode="&#xc0;" horiz-adv-x="594" 
d="M-61 0l377 700h107l107 -700h-114l-23 174h-248l-91 -174h-115zM381 278l-37 283l-145 -283h182zM243 904h143l41 -148h-82z" />
    <glyph glyph-name="Aacute" unicode="&#xc1;" horiz-adv-x="594" 
d="M-61 0l377 700h107l107 -700h-114l-23 174h-248l-91 -174h-115zM381 278l-37 283l-145 -283h182zM376 756h-83l98 148h143z" />
    <glyph glyph-name="Acircumflex" unicode="&#xc2;" horiz-adv-x="594" 
d="M-61 0l377 700h107l107 -700h-114l-23 174h-248l-91 -174h-115zM381 278l-37 283l-145 -283h182zM298 762h-111l193 176h30l125 -176h-100l-55 76z" />
    <glyph glyph-name="Atilde" unicode="&#xc3;" horiz-adv-x="594" 
d="M-61 0l377 700h107l107 -700h-114l-23 174h-248l-91 -174h-115zM381 278l-37 283l-145 -283h182zM238 773l-56 47c31 47 81 81 130 81c25 0 49 -7 70 -21c22 -13 41 -20 57 -20c19 0 42 13 69 40l56 -47c-31 -47 -81 -81 -130 -81c-25 0 -49 7 -71 20
c-21 14 -40 21 -56 21c-19 0 -42 -13 -69 -40z" />
    <glyph glyph-name="Adieresis" unicode="&#xc4;" horiz-adv-x="594" 
d="M-61 0l377 700h107l107 -700h-114l-23 174h-248l-91 -174h-115zM381 278l-37 283l-145 -283h182zM249 802c-24 24 -24 66 0 90s66 24 90 0s24 -66 0 -90s-66 -24 -90 0zM434 802c-24 24 -24 66 0 90s66 24 90 0s24 -66 0 -90s-66 -24 -90 0z" />
    <glyph glyph-name="Aring" unicode="&#xc5;" horiz-adv-x="594" 
d="M-61 0l377 700h107l107 -700h-114l-23 174h-248l-91 -174h-115zM381 278l-37 283l-145 -283h182zM294 849c0 57 44 102 101 102c59 0 101 -45 101 -102c0 -56 -42 -98 -101 -98c-57 0 -101 43 -101 98zM359 850c0 -48 72 -48 72 0c4 51 -76 51 -72 0z" />
    <glyph glyph-name="AE" unicode="&#xc6;" horiz-adv-x="851" 
d="M-61 0l439 700h482l-21 -104h-298l-33 -172h239l-20 -104h-239l-42 -216h308l-21 -104h-419l34 174h-179l-106 -174h-124zM424 561h-17l-173 -283h135z" />
    <glyph glyph-name="Ccedilla" unicode="&#xc7;" horiz-adv-x="675" 
d="M669 491l-109 -26c-15 96 -58 139 -146 139c-53 0 -101 -16 -143 -48c-84 -64 -126 -165 -126 -269c0 -128 61 -191 170 -191c87 0 141 43 196 138l99 -30c-65 -145 -166 -212 -315 -212c-76 0 -139 26 -189 77s-75 121 -75 208c0 111 39 217 106 297
c67 81 174 134 297 134c141 0 224 -88 235 -217zM288 -60h81l-115 -191l-110 56z" />
    <glyph glyph-name="Egrave" unicode="&#xc8;" horiz-adv-x="567" 
d="M30 0l137 700h409l-21 -104h-298l-33 -172h239l-20 -104h-239l-42 -216h308l-21 -104h-419zM275 904h143l41 -148h-82z" />
    <glyph glyph-name="Eacute" unicode="&#xc9;" horiz-adv-x="567" 
d="M30 0l137 700h409l-21 -104h-298l-33 -172h239l-20 -104h-239l-42 -216h308l-21 -104h-419zM369 756h-83l98 148h143z" />
    <glyph glyph-name="Ecircumflex" unicode="&#xca;" horiz-adv-x="567" 
d="M30 0l137 700h409l-21 -104h-298l-33 -172h239l-20 -104h-239l-42 -216h308l-21 -104h-419zM307 762h-111l193 176h30l125 -176h-100l-55 76z" />
    <glyph glyph-name="Edieresis" unicode="&#xcb;" horiz-adv-x="567" 
d="M30 0l137 700h409l-21 -104h-298l-33 -172h239l-20 -104h-239l-42 -216h308l-21 -104h-419zM248 802c-24 24 -24 66 0 90s66 24 90 0s24 -66 0 -90s-66 -24 -90 0zM433 802c-24 24 -24 66 0 90s66 24 90 0s24 -66 0 -90s-66 -24 -90 0z" />
    <glyph glyph-name="Igrave" unicode="&#xcc;" horiz-adv-x="308" 
d="M141 0h-111l137 700h111zM108 904h143l41 -148h-82z" />
    <glyph glyph-name="Iacute" unicode="&#xcd;" horiz-adv-x="308" 
d="M141 0h-111l137 700h111zM233 756h-83l98 148h143z" />
    <glyph glyph-name="Icircumflex" unicode="&#xce;" horiz-adv-x="308" 
d="M141 0h-111l137 700h111zM163 762h-111l193 176h30l125 -176h-100l-55 76z" />
    <glyph glyph-name="Idieresis" unicode="&#xcf;" horiz-adv-x="308" 
d="M141 0h-111l137 700h111zM108 802c-24 24 -24 66 0 90s66 24 90 0s24 -66 0 -90s-66 -24 -90 0zM293 802c-24 24 -24 66 0 90s66 24 90 0s24 -66 0 -90s-66 -24 -90 0z" />
    <glyph glyph-name="Eth" unicode="&#xd0;" horiz-adv-x="668" 
d="M103 396l60 304h187c84 0 151 -25 202 -76c51 -50 77 -124 77 -221c0 -116 -37 -212 -111 -289c-74 -76 -169 -114 -284 -114h-208l59 304h-61l17 92h62zM319 596h-67l-39 -200h118l-17 -92h-119l-38 -200h69c86 0 156 27 209 81c53 55 80 124 80 208
c0 135 -65 203 -196 203z" />
    <glyph glyph-name="Ntilde" unicode="&#xd1;" horiz-adv-x="708" 
d="M469 196l98 504h111l-137 -700h-119l-183 502l-98 -502h-111l137 700h119zM294 773l-56 47c31 47 81 81 130 81c25 0 49 -7 70 -21c22 -13 41 -20 57 -20c19 0 42 13 69 40l56 -47c-31 -47 -81 -81 -130 -81c-25 0 -49 7 -71 20c-21 14 -40 21 -56 21
c-19 0 -42 -13 -69 -40z" />
    <glyph glyph-name="Ograve" unicode="&#xd2;" horiz-adv-x="727" 
d="M429 708c73 0 134 -25 184 -75c50 -49 75 -119 75 -210c0 -143 -47 -257 -142 -340c-69 -61 -154 -91 -256 -91c-73 0 -134 25 -184 74c-50 50 -75 120 -75 211c0 143 47 257 142 340c69 61 154 91 256 91zM409 604c-75 0 -137 -30 -186 -89c-51 -63 -77 -139 -77 -228
c0 -123 63 -191 164 -191c75 0 137 30 186 89c51 63 77 139 77 228c0 123 -63 191 -164 191zM319 904h143l41 -148h-82z" />
    <glyph glyph-name="Oacute" unicode="&#xd3;" horiz-adv-x="727" 
d="M429 708c73 0 134 -25 184 -75c50 -49 75 -119 75 -210c0 -143 -47 -257 -142 -340c-69 -61 -154 -91 -256 -91c-73 0 -134 25 -184 74c-50 50 -75 120 -75 211c0 143 47 257 142 340c69 61 154 91 256 91zM409 604c-75 0 -137 -30 -186 -89c-51 -63 -77 -139 -77 -228
c0 -123 63 -191 164 -191c75 0 137 30 186 89c51 63 77 139 77 228c0 123 -63 191 -164 191zM450 756h-83l98 148h143z" />
    <glyph glyph-name="Ocircumflex" unicode="&#xd4;" horiz-adv-x="727" 
d="M429 708c73 0 134 -25 184 -75c50 -49 75 -119 75 -210c0 -143 -47 -257 -142 -340c-69 -61 -154 -91 -256 -91c-73 0 -134 25 -184 74c-50 50 -75 120 -75 211c0 143 47 257 142 340c69 61 154 91 256 91zM409 604c-75 0 -137 -30 -186 -89c-51 -63 -77 -139 -77 -228
c0 -123 63 -191 164 -191c75 0 137 30 186 89c51 63 77 139 77 228c0 123 -63 191 -164 191zM371 762h-111l193 176h30l125 -176h-100l-55 76z" />
    <glyph glyph-name="Otilde" unicode="&#xd5;" horiz-adv-x="727" 
d="M429 708c73 0 134 -25 184 -75c50 -49 75 -119 75 -210c0 -143 -47 -257 -142 -340c-69 -61 -154 -91 -256 -91c-73 0 -134 25 -184 74c-50 50 -75 120 -75 211c0 143 47 257 142 340c69 61 154 91 256 91zM409 604c-75 0 -137 -30 -186 -89c-51 -63 -77 -139 -77 -228
c0 -123 63 -191 164 -191c75 0 137 30 186 89c51 63 77 139 77 228c0 123 -63 191 -164 191zM308 773l-56 47c31 47 81 81 130 81c25 0 49 -7 70 -21c22 -13 41 -20 57 -20c19 0 42 13 69 40l56 -47c-31 -47 -81 -81 -130 -81c-25 0 -49 7 -71 20c-21 14 -40 21 -56 21
c-19 0 -42 -13 -69 -40z" />
    <glyph glyph-name="Odieresis" unicode="&#xd6;" horiz-adv-x="727" 
d="M429 708c73 0 134 -25 184 -75c50 -49 75 -119 75 -210c0 -143 -47 -257 -142 -340c-69 -61 -154 -91 -256 -91c-73 0 -134 25 -184 74c-50 50 -75 120 -75 211c0 143 47 257 142 340c69 61 154 91 256 91zM409 604c-75 0 -137 -30 -186 -89c-51 -63 -77 -139 -77 -228
c0 -123 63 -191 164 -191c75 0 137 30 186 89c51 63 77 139 77 228c0 123 -63 191 -164 191zM313 802c-24 24 -24 66 0 90s66 24 90 0s24 -66 0 -90s-66 -24 -90 0zM498 802c-24 24 -24 66 0 90s66 24 90 0s24 -66 0 -90s-66 -24 -90 0z" />
    <glyph glyph-name="multiply" unicode="&#xd7;" horiz-adv-x="538" 
d="M334 316l153 -154l-65 -65l-153 153l-153 -153l-65 65l153 154l-153 154l65 65l153 -153l153 153l65 -65z" />
    <glyph glyph-name="Oslash" unicode="&#xd8;" horiz-adv-x="727" 
d="M429 708c63 0 117 -19 164 -56l81 83l62 -59l-87 -90c26 -45 39 -99 39 -163c0 -143 -47 -257 -142 -340c-69 -61 -154 -91 -256 -91c-65 0 -120 19 -164 56l-81 -83l-62 59l87 90c-26 45 -39 99 -39 163c0 143 47 257 142 340c69 61 154 91 256 91zM409 604
c-75 0 -137 -30 -186 -89c-51 -63 -77 -139 -77 -228c0 -31 4 -59 12 -83l355 366c-28 23 -63 34 -104 34zM573 413c0 31 -4 59 -12 83l-356 -366c27 -23 62 -34 105 -34c75 0 137 30 186 89c51 63 77 139 77 228z" />
    <glyph glyph-name="Ugrave" unicode="&#xd9;" horiz-adv-x="675" 
d="M73 262l85 438h111l-88 -453c-3 -19 -5 -34 -5 -47c0 -69 38 -104 113 -104c87 0 146 52 165 151l88 453h111l-87 -448c-37 -191 -134 -260 -297 -260c-127 0 -205 68 -205 199c0 15 3 38 9 71zM291 904h143l41 -148h-82z" />
    <glyph glyph-name="Uacute" unicode="&#xda;" horiz-adv-x="675" 
d="M73 262l85 438h111l-88 -453c-3 -19 -5 -34 -5 -47c0 -69 38 -104 113 -104c87 0 146 52 165 151l88 453h111l-87 -448c-37 -191 -134 -260 -297 -260c-127 0 -205 68 -205 199c0 15 3 38 9 71zM407 756h-83l98 148h143z" />
    <glyph glyph-name="Ucircumflex" unicode="&#xdb;" horiz-adv-x="675" 
d="M73 262l85 438h111l-88 -453c-3 -19 -5 -34 -5 -47c0 -69 38 -104 113 -104c87 0 146 52 165 151l88 453h111l-87 -448c-37 -191 -134 -260 -297 -260c-127 0 -205 68 -205 199c0 15 3 38 9 71zM347 762h-111l193 176h30l125 -176h-100l-55 76z" />
    <glyph glyph-name="Udieresis" unicode="&#xdc;" horiz-adv-x="675" 
d="M73 262l85 438h111l-88 -453c-3 -19 -5 -34 -5 -47c0 -69 38 -104 113 -104c87 0 146 52 165 151l88 453h111l-87 -448c-37 -191 -134 -260 -297 -260c-127 0 -205 68 -205 199c0 15 3 38 9 71zM288 802c-24 24 -24 66 0 90s66 24 90 0s24 -66 0 -90s-66 -24 -90 0z
M473 802c-24 24 -24 66 0 90s66 24 90 0s24 -66 0 -90s-66 -24 -90 0z" />
    <glyph glyph-name="Yacute" unicode="&#xdd;" horiz-adv-x="500" 
d="M177 300l-125 400h118l81 -291l195 291h123l-281 -400l-59 -300h-111zM314 756h-83l98 148h143z" />
    <glyph glyph-name="Thorn" unicode="&#xde;" horiz-adv-x="587" 
d="M141 0h-111l136 700h111l-27 -143h122c121 0 194 -63 194 -174c0 -156 -105 -240 -270 -240h-127zM229 453l-40 -206h135c73 0 128 49 128 121c0 57 -30 85 -90 85h-133z" />
    <glyph glyph-name="germandbls" unicode="&#xdf;" horiz-adv-x="581" 
d="M101 337h-48l18 92h48l12 64c27 143 114 215 238 215c101 0 157 -60 157 -151c0 -81 -37 -135 -111 -164c55 -11 102 -70 102 -159c0 -161 -97 -242 -249 -242c-37 0 -65 3 -85 8l18 92c27 -5 49 -8 68 -8c97 0 145 48 145 144c0 68 -44 109 -115 109h-30l19 92h27
c64 0 112 43 112 107c0 52 -29 80 -76 80c-59 0 -100 -38 -113 -109l-99 -507h-103z" />
    <glyph glyph-name="agrave" unicode="&#xe0;" horiz-adv-x="596" 
d="M308 512c55 0 102 -25 122 -64l10 56h105l-97 -504h-105l11 58c-37 -44 -85 -66 -146 -66c-57 0 -102 20 -135 59c-32 39 -48 88 -48 145c0 93 25 168 75 227c51 59 120 89 208 89zM138 221c0 -87 39 -137 102 -137c51 0 90 21 119 62c29 42 44 91 44 148
c0 84 -35 126 -105 126c-49 0 -88 -20 -117 -61c-29 -40 -43 -86 -43 -138zM205 708h143l41 -148h-82z" />
    <glyph glyph-name="aacute" unicode="&#xe1;" horiz-adv-x="596" 
d="M308 512c55 0 102 -25 122 -64l10 56h105l-97 -504h-105l11 58c-37 -44 -85 -66 -146 -66c-57 0 -102 20 -135 59c-32 39 -48 88 -48 145c0 93 25 168 75 227c51 59 120 89 208 89zM138 221c0 -87 39 -137 102 -137c51 0 90 21 119 62c29 42 44 91 44 148
c0 84 -35 126 -105 126c-49 0 -88 -20 -117 -61c-29 -40 -43 -86 -43 -138zM334 560h-83l98 148h143z" />
    <glyph glyph-name="acircumflex" unicode="&#xe2;" horiz-adv-x="596" 
d="M308 512c55 0 102 -25 122 -64l10 56h105l-97 -504h-105l11 58c-37 -44 -85 -66 -146 -66c-57 0 -102 20 -135 59c-32 39 -48 88 -48 145c0 93 25 168 75 227c51 59 120 89 208 89zM138 221c0 -87 39 -137 102 -137c51 0 90 21 119 62c29 42 44 91 44 148
c0 84 -35 126 -105 126c-49 0 -88 -20 -117 -61c-29 -40 -43 -86 -43 -138zM279 566h-111l193 176h30l125 -176h-100l-55 76z" />
    <glyph glyph-name="atilde" unicode="&#xe3;" horiz-adv-x="596" 
d="M308 512c55 0 102 -25 122 -64l10 56h105l-97 -504h-105l11 58c-37 -44 -85 -66 -146 -66c-57 0 -102 20 -135 59c-32 39 -48 88 -48 145c0 93 25 168 75 227c51 59 120 89 208 89zM138 221c0 -87 39 -137 102 -137c51 0 90 21 119 62c29 42 44 91 44 148
c0 84 -35 126 -105 126c-49 0 -88 -20 -117 -61c-29 -40 -43 -86 -43 -138zM207 577l-56 47c31 47 81 81 130 81c25 0 49 -7 70 -21c22 -13 41 -20 57 -20c19 0 42 13 69 40l56 -47c-31 -47 -81 -81 -130 -81c-25 0 -49 7 -71 20c-21 14 -40 21 -56 21
c-19 0 -42 -13 -69 -40z" />
    <glyph glyph-name="adieresis" unicode="&#xe4;" horiz-adv-x="596" 
d="M308 512c55 0 102 -25 122 -64l10 56h105l-97 -504h-105l11 58c-37 -44 -85 -66 -146 -66c-57 0 -102 20 -135 59c-32 39 -48 88 -48 145c0 93 25 168 75 227c51 59 120 89 208 89zM138 221c0 -87 39 -137 102 -137c51 0 90 21 119 62c29 42 44 91 44 148
c0 84 -35 126 -105 126c-49 0 -88 -20 -117 -61c-29 -40 -43 -86 -43 -138zM221 606c-24 24 -24 66 0 90s66 24 90 0s24 -66 0 -90s-66 -24 -90 0zM406 606c-24 24 -24 66 0 90s66 24 90 0s24 -66 0 -90s-66 -24 -90 0z" />
    <glyph glyph-name="aring" unicode="&#xe5;" horiz-adv-x="596" 
d="M308 512c55 0 102 -25 122 -64l10 56h105l-97 -504h-105l11 58c-37 -44 -85 -66 -146 -66c-57 0 -102 20 -135 59c-32 39 -48 88 -48 145c0 93 25 168 75 227c51 59 120 89 208 89zM138 221c0 -87 39 -137 102 -137c51 0 90 21 119 62c29 42 44 91 44 148
c0 84 -35 126 -105 126c-49 0 -88 -20 -117 -61c-29 -40 -43 -86 -43 -138zM264 653c0 57 44 102 101 102c59 0 101 -45 101 -102c0 -56 -42 -98 -101 -98c-57 0 -101 43 -101 98zM329 654c0 -48 72 -48 72 0c4 51 -76 51 -72 0z" />
    <glyph glyph-name="ae" unicode="&#xe6;" horiz-adv-x="892" 
d="M836 268l-9 -45h-363c-2 -11 -3 -22 -3 -33c0 -63 36 -106 108 -106c57 0 107 31 150 92l80 -42c-68 -101 -137 -142 -252 -142c-79 0 -134 32 -167 97c-65 -76 -121 -97 -196 -97c-92 0 -159 53 -159 142c2 128 109 179 234 176h111l3 17c2 10 3 17 3 22
c0 47 -29 71 -86 71c-46 0 -80 -23 -102 -70l-93 22c35 93 103 140 205 140c77 0 131 -23 162 -68c53 45 115 68 186 68c123 0 193 -78 193 -193c0 -15 -2 -32 -5 -51zM353 223h-106c-63 0 -110 -25 -110 -81c0 -33 25 -58 66 -58c69 0 131 43 147 126zM630 420
c-67 0 -123 -45 -147 -110h251c0 65 -33 110 -104 110z" />
    <glyph glyph-name="ccedilla" unicode="&#xe7;" horiz-adv-x="547" 
d="M376 176l86 -39c-67 -105 -136 -145 -244 -145c-119 0 -193 84 -193 215c0 53 11 103 34 148c45 92 141 157 260 157c104 0 168 -52 188 -140l-98 -39c-18 58 -54 87 -108 87c-49 0 -88 -21 -119 -62s-46 -90 -46 -145c0 -83 36 -129 100 -129c54 0 101 31 140 92z
M218 -60h81l-115 -191l-110 56z" />
    <glyph glyph-name="egrave" unicode="&#xe8;" horiz-adv-x="561" 
d="M301 420c-67 0 -123 -45 -147 -110h251c0 65 -33 110 -104 110zM507 268l-9 -45h-363c-2 -11 -3 -22 -3 -33c0 -63 36 -106 108 -106c57 0 107 31 150 92l80 -42c-68 -101 -137 -142 -252 -142c-61 0 -108 20 -142 60s-51 92 -51 155c0 80 27 151 82 212
c55 62 126 93 212 93c123 0 193 -78 193 -193c0 -15 -2 -32 -5 -51zM205 708h143l41 -148h-82z" />
    <glyph glyph-name="eacute" unicode="&#xe9;" horiz-adv-x="561" 
d="M301 420c-67 0 -123 -45 -147 -110h251c0 65 -33 110 -104 110zM507 268l-9 -45h-363c-2 -11 -3 -22 -3 -33c0 -63 36 -106 108 -106c57 0 107 31 150 92l80 -42c-68 -101 -137 -142 -252 -142c-61 0 -108 20 -142 60s-51 92 -51 155c0 80 27 151 82 212
c55 62 126 93 212 93c123 0 193 -78 193 -193c0 -15 -2 -32 -5 -51zM346 560h-83l98 148h143z" />
    <glyph glyph-name="ecircumflex" unicode="&#xea;" horiz-adv-x="561" 
d="M301 420c-67 0 -123 -45 -147 -110h251c0 65 -33 110 -104 110zM507 268l-9 -45h-363c-2 -11 -3 -22 -3 -33c0 -63 36 -106 108 -106c57 0 107 31 150 92l80 -42c-68 -101 -137 -142 -252 -142c-61 0 -108 20 -142 60s-51 92 -51 155c0 80 27 151 82 212
c55 62 126 93 212 93c123 0 193 -78 193 -193c0 -15 -2 -32 -5 -51zM259 566h-111l193 176h30l125 -176h-100l-55 76z" />
    <glyph glyph-name="edieresis" unicode="&#xeb;" horiz-adv-x="561" 
d="M301 420c-67 0 -123 -45 -147 -110h251c0 65 -33 110 -104 110zM507 268l-9 -45h-363c-2 -11 -3 -22 -3 -33c0 -63 36 -106 108 -106c57 0 107 31 150 92l80 -42c-68 -101 -137 -142 -252 -142c-61 0 -108 20 -142 60s-51 92 -51 155c0 80 27 151 82 212
c55 62 126 93 212 93c123 0 193 -78 193 -193c0 -15 -2 -32 -5 -51zM208 606c-24 24 -24 66 0 90s66 24 90 0s24 -66 0 -90s-66 -24 -90 0zM393 606c-24 24 -24 66 0 90s66 24 90 0s24 -66 0 -90s-66 -24 -90 0z" />
    <glyph glyph-name="igrave" unicode="&#xec;" horiz-adv-x="287" 
d="M24 0l98 504h105l-98 -504h-105zM62 708h143l41 -148h-82z" />
    <glyph glyph-name="iacute" unicode="&#xed;" horiz-adv-x="287" 
d="M24 0l98 504h105l-98 -504h-105zM193 560h-83l98 148h143z" />
    <glyph glyph-name="icircumflex" unicode="&#xee;" horiz-adv-x="287" 
d="M24 0l98 504h105l-98 -504h-105zM118 566h-111l193 176h30l125 -176h-100l-55 76z" />
    <glyph glyph-name="idieresis" unicode="&#xef;" horiz-adv-x="287" 
d="M24 0l98 504h105l-98 -504h-105zM60 606c-24 24 -24 66 0 90s66 24 90 0s24 -66 0 -90s-66 -24 -90 0zM245 606c-24 24 -24 66 0 90s66 24 90 0s24 -66 0 -90s-66 -24 -90 0z" />
    <glyph glyph-name="eth" unicode="&#xf0;" horiz-adv-x="585" 
d="M336 590l-45 -52l-59 48l43 48c-21 13 -46 26 -75 40l66 76c31 -15 56 -29 74 -41l45 52l59 -48l-44 -49c83 -71 125 -173 125 -304c0 -191 -80 -368 -300 -368c-61 0 -109 20 -146 61c-36 41 -54 90 -54 149c0 89 27 163 81 222c55 59 126 88 214 88c38 0 67 -9 87 -27
c-11 39 -34 74 -71 105zM302 420c-50 0 -90 -21 -121 -62c-30 -41 -45 -87 -45 -140c0 -80 34 -134 101 -134c51 0 92 20 123 60c31 41 46 89 46 144c0 88 -35 132 -104 132z" />
    <glyph glyph-name="ntilde" unicode="&#xf1;" horiz-adv-x="579" 
d="M24 0l98 504h105l-15 -80c45 59 103 88 172 88c77 0 124 -44 124 -112c0 -15 -2 -32 -6 -51l-68 -349h-105l63 328c3 13 4 23 4 32c0 40 -19 60 -58 60c-34 0 -67 -18 -100 -54s-54 -82 -65 -137l-44 -229h-105zM214 577l-56 47c31 47 81 81 130 81c25 0 49 -7 70 -21
c22 -13 41 -20 57 -20c19 0 42 13 69 40l56 -47c-31 -47 -81 -81 -130 -81c-25 0 -49 7 -71 20c-21 14 -40 21 -56 21c-19 0 -42 -13 -69 -40z" />
    <glyph glyph-name="ograve" unicode="&#xf2;" horiz-adv-x="588" 
d="M25 209c0 93 26 165 79 218c56 57 128 85 216 85c63 0 113 -21 151 -62s57 -93 57 -155c0 -93 -26 -165 -79 -218c-56 -57 -128 -85 -216 -85c-63 0 -113 21 -151 62s-57 93 -57 155zM306 420c-49 0 -90 -21 -123 -63c-31 -39 -46 -85 -46 -138c0 -84 43 -135 110 -135
c49 0 90 21 123 63c31 39 46 85 46 138c0 84 -43 135 -110 135zM199 708h143l41 -148h-82z" />
    <glyph glyph-name="oacute" unicode="&#xf3;" horiz-adv-x="588" 
d="M25 209c0 93 26 165 79 218c56 57 128 85 216 85c63 0 113 -21 151 -62s57 -93 57 -155c0 -93 -26 -165 -79 -218c-56 -57 -128 -85 -216 -85c-63 0 -113 21 -151 62s-57 93 -57 155zM306 420c-49 0 -90 -21 -123 -63c-31 -39 -46 -85 -46 -138c0 -84 43 -135 110 -135
c49 0 90 21 123 63c31 39 46 85 46 138c0 84 -43 135 -110 135zM319 560h-83l98 148h143z" />
    <glyph glyph-name="ocircumflex" unicode="&#xf4;" horiz-adv-x="588" 
d="M25 209c0 93 26 165 79 218c56 57 128 85 216 85c63 0 113 -21 151 -62s57 -93 57 -155c0 -93 -26 -165 -79 -218c-56 -57 -128 -85 -216 -85c-63 0 -113 21 -151 62s-57 93 -57 155zM306 420c-49 0 -90 -21 -123 -63c-31 -39 -46 -85 -46 -138c0 -84 43 -135 110 -135
c49 0 90 21 123 63c31 39 46 85 46 138c0 84 -43 135 -110 135zM262 566h-111l193 176h30l125 -176h-100l-55 76z" />
    <glyph glyph-name="otilde" unicode="&#xf5;" horiz-adv-x="588" 
d="M25 209c0 93 26 165 79 218c56 57 128 85 216 85c63 0 113 -21 151 -62s57 -93 57 -155c0 -93 -26 -165 -79 -218c-56 -57 -128 -85 -216 -85c-63 0 -113 21 -151 62s-57 93 -57 155zM306 420c-49 0 -90 -21 -123 -63c-31 -39 -46 -85 -46 -138c0 -84 43 -135 110 -135
c49 0 90 21 123 63c31 39 46 85 46 138c0 84 -43 135 -110 135zM198 577l-56 47c31 47 81 81 130 81c25 0 49 -7 70 -21c22 -13 41 -20 57 -20c19 0 42 13 69 40l56 -47c-31 -47 -81 -81 -130 -81c-25 0 -49 7 -71 20c-21 14 -40 21 -56 21c-19 0 -42 -13 -69 -40z" />
    <glyph glyph-name="odieresis" unicode="&#xf6;" horiz-adv-x="588" 
d="M25 209c0 93 26 165 79 218c56 57 128 85 216 85c63 0 113 -21 151 -62s57 -93 57 -155c0 -93 -26 -165 -79 -218c-56 -57 -128 -85 -216 -85c-63 0 -113 21 -151 62s-57 93 -57 155zM306 420c-49 0 -90 -21 -123 -63c-31 -39 -46 -85 -46 -138c0 -84 43 -135 110 -135
c49 0 90 21 123 63c31 39 46 85 46 138c0 84 -43 135 -110 135zM206 606c-24 24 -24 66 0 90s66 24 90 0s24 -66 0 -90s-66 -24 -90 0zM391 606c-24 24 -24 66 0 90s66 24 90 0s24 -66 0 -90s-66 -24 -90 0z" />
    <glyph glyph-name="divide" unicode="&#xf7;" horiz-adv-x="576" 
d="M237 180c29 29 77 29 105 0c29 -28 29 -76 0 -105c-28 -28 -76 -28 -105 0c-28 29 -28 77 0 105zM237 552c29 29 77 29 105 0c29 -28 29 -76 0 -105c-28 -28 -76 -28 -105 0c-28 29 -28 77 0 105zM513 271h-445v92h445v-92z" />
    <glyph glyph-name="oslash" unicode="&#xf8;" horiz-adv-x="588" 
d="M25 209c0 93 26 165 79 218c56 57 128 85 216 85c46 0 86 -12 121 -36l77 78l59 -59l-80 -80c21 -35 31 -75 31 -120c0 -93 -26 -165 -79 -218c-56 -57 -128 -85 -216 -85c-47 0 -87 12 -121 35l-77 -77l-59 59l79 80c-20 34 -30 74 -30 120zM416 285c0 14 -2 28 -5 43
l-225 -226c17 -12 38 -18 61 -18c49 0 90 21 123 63c31 39 46 85 46 138zM306 420c-49 0 -90 -21 -123 -63c-31 -39 -46 -85 -46 -138c0 -18 1 -33 4 -44l226 227c-17 12 -37 18 -61 18z" />
    <glyph glyph-name="ugrave" unicode="&#xf9;" horiz-adv-x="582" 
d="M531 504l-98 -504h-105l15 80c-45 -59 -103 -88 -172 -88c-77 0 -124 44 -124 112c0 15 2 32 6 51l68 349h105l-63 -328c-3 -13 -4 -23 -4 -32c0 -40 19 -60 58 -60c34 0 67 18 100 54s54 82 65 137l44 229h105zM210 708h143l41 -148h-82z" />
    <glyph glyph-name="uacute" unicode="&#xfa;" horiz-adv-x="582" 
d="M531 504l-98 -504h-105l15 80c-45 -59 -103 -88 -172 -88c-77 0 -124 44 -124 112c0 15 2 32 6 51l68 349h105l-63 -328c-3 -13 -4 -23 -4 -32c0 -40 19 -60 58 -60c34 0 67 18 100 54s54 82 65 137l44 229h105zM329 560h-83l98 148h143z" />
    <glyph glyph-name="ucircumflex" unicode="&#xfb;" horiz-adv-x="582" 
d="M531 504l-98 -504h-105l15 80c-45 -59 -103 -88 -172 -88c-77 0 -124 44 -124 112c0 15 2 32 6 51l68 349h105l-63 -328c-3 -13 -4 -23 -4 -32c0 -40 19 -60 58 -60c34 0 67 18 100 54s54 82 65 137l44 229h105zM267 566h-111l193 176h30l125 -176h-100l-55 76z" />
    <glyph glyph-name="udieresis" unicode="&#xfc;" horiz-adv-x="582" 
d="M531 504l-98 -504h-105l15 80c-45 -59 -103 -88 -172 -88c-77 0 -124 44 -124 112c0 15 2 32 6 51l68 349h105l-63 -328c-3 -13 -4 -23 -4 -32c0 -40 19 -60 58 -60c34 0 67 18 100 54s54 82 65 137l44 229h105zM208 606c-24 24 -24 66 0 90s66 24 90 0s24 -66 0 -90
s-66 -24 -90 0zM393 606c-24 24 -24 66 0 90s66 24 90 0s24 -66 0 -90s-66 -24 -90 0z" />
    <glyph glyph-name="yacute" unicode="&#xfd;" horiz-adv-x="479" 
d="M117 29l-83 475h111l53 -339l176 339h115l-391 -708h-105zM264 560h-83l98 148h143z" />
    <glyph glyph-name="thorn" unicode="&#xfe;" horiz-adv-x="605" 
d="M545 298c0 -87 -24 -159 -72 -218s-115 -88 -202 -88c-56 0 -113 31 -130 66l-51 -262h-105l177 912h105l-50 -260c38 43 86 64 144 64c109 0 184 -78 184 -214zM266 84c50 0 90 21 120 63c31 43 46 91 46 144c0 85 -37 129 -101 129c-48 0 -87 -21 -118 -63
c-31 -41 -46 -91 -46 -149c0 -73 44 -124 99 -124z" />
    <glyph glyph-name="ydieresis" unicode="&#xff;" horiz-adv-x="479" 
d="M117 29l-83 475h111l53 -339l176 339h115l-391 -708h-105zM120 606c-24 24 -24 66 0 90s66 24 90 0s24 -66 0 -90s-66 -24 -90 0zM305 606c-24 24 -24 66 0 90s66 24 90 0s24 -66 0 -90s-66 -24 -90 0z" />
    <glyph glyph-name="dotlessi" unicode="&#x131;" horiz-adv-x="287" 
d="M24 0l98 504h105l-98 -504h-105z" />
    <glyph glyph-name="Lslash" unicode="&#x141;" horiz-adv-x="518" 
d="M106 356l67 344h111l-55 -282l118 60l30 -81l-169 -85l-40 -208h296l-21 -104h-406l48 250l-66 -33l-30 80z" />
    <glyph glyph-name="lslash" unicode="&#x142;" horiz-adv-x="339" 
d="M128 386l62 322h105l-51 -265l66 33l27 -81l-113 -56l-66 -339h-105l55 282l-66 -33l-27 81z" />
    <glyph glyph-name="OE" unicode="&#x152;" horiz-adv-x="1041" 
d="M625 620l16 80h409l-21 -104h-298l-33 -172h239l-20 -104h-239l-42 -216h308l-21 -104h-419l11 58c-59 -44 -134 -66 -225 -66c-73 0 -134 25 -184 74c-50 50 -75 120 -75 211c0 143 47 257 142 340c69 61 154 91 256 91c83 0 148 -29 196 -88zM409 604
c-75 0 -137 -30 -186 -89c-51 -63 -77 -139 -77 -228c0 -123 63 -191 164 -191c75 0 137 30 186 89c51 63 77 139 77 228c0 123 -63 191 -164 191z" />
    <glyph glyph-name="oe" unicode="&#x153;" horiz-adv-x="950" 
d="M894 268l-9 -45h-363c-2 -11 -3 -22 -3 -33c0 -63 36 -106 108 -106c57 0 107 31 150 92l80 -42c-68 -101 -137 -142 -252 -142c-72 0 -125 27 -159 82c-55 -55 -126 -82 -213 -82c-63 0 -113 21 -151 62s-57 93 -57 155c0 93 26 165 79 218c56 57 128 85 216 85
c77 0 135 -31 174 -93c57 62 127 93 212 93c123 0 193 -78 193 -193c0 -15 -2 -32 -5 -51zM306 420c-49 0 -90 -21 -123 -63c-31 -39 -46 -85 -46 -138c0 -84 43 -135 110 -135c49 0 90 21 123 63c31 39 46 85 46 138c0 84 -43 135 -110 135zM688 420
c-67 0 -123 -45 -147 -110h251c0 65 -33 110 -104 110z" />
    <glyph glyph-name="Scaron" unicode="&#x160;" horiz-adv-x="533" 
d="M501 585l-97 -51c-17 49 -47 74 -91 74c-49 0 -87 -33 -87 -88c0 -28 11 -51 36 -71c27 -19 41 -27 80 -46c87 -41 127 -86 127 -182c0 -74 -23 -130 -69 -169c-47 -40 -109 -60 -185 -60c-55 0 -101 18 -140 55c-38 37 -58 84 -59 140l95 53c7 -89 53 -144 126 -144
c69 0 118 40 118 111c0 55 -34 86 -105 121c-91 45 -137 106 -137 184c0 124 88 196 217 196c41 0 77 -12 108 -37s52 -53 63 -86zM434 938h111l-193 -176h-30l-125 176h100l55 -76z" />
    <glyph glyph-name="scaron" unicode="&#x161;" horiz-adv-x="458" 
d="M263 512c67 0 123 -32 147 -84l-77 -58c-22 33 -49 50 -81 50c-36 0 -59 -19 -59 -52c0 -29 20 -43 75 -68c37 -17 54 -27 78 -50c25 -21 37 -51 37 -90c0 -112 -72 -168 -184 -168c-53 0 -97 14 -130 43s-53 63 -58 101l89 40c12 -53 47 -92 102 -92c48 0 78 23 78 66
c0 32 -32 54 -89 79c-67 29 -101 73 -101 131c0 96 66 152 173 152zM378 742h111l-193 -176h-30l-125 176h100l55 -76z" />
    <glyph glyph-name="Ydieresis" unicode="&#x178;" horiz-adv-x="500" 
d="M177 300l-125 400h118l81 -291l195 291h123l-281 -400l-59 -300h-111zM191 802c-24 24 -24 66 0 90s66 24 90 0s24 -66 0 -90s-66 -24 -90 0zM376 802c-24 24 -24 66 0 90s66 24 90 0s24 -66 0 -90s-66 -24 -90 0z" />
    <glyph glyph-name="Zcaron" unicode="&#x17d;" horiz-adv-x="567" 
d="M401 596h-300l21 104h452l-11 -54l-412 -542h324l-21 -104h-479l11 54zM445 938h111l-193 -176h-30l-125 176h100l55 -76z" />
    <glyph glyph-name="zcaron" unicode="&#x17e;" horiz-adv-x="462" 
d="M274 412h-202l17 92h353l-8 -42l-275 -370h221l-17 -92h-374l7 42zM367 742h111l-193 -176h-30l-125 176h100l55 -76z" />
    <glyph glyph-name="florin" unicode="&#x192;" horiz-adv-x="437" 
d="M199 412h-85l18 92h85l5 26c23 119 91 178 203 178c36 0 63 -6 80 -18l-38 -88c-16 9 -35 14 -57 14c-46 0 -74 -26 -83 -79l-6 -33h111l-18 -92h-111l-88 -446c-23 -119 -91 -178 -203 -178c-36 0 -63 6 -80 18l38 88c16 -9 35 -14 57 -14c45 0 72 26 83 79z" />
    <glyph glyph-name="circumflex" unicode="&#x2c6;" horiz-adv-x="404" 
d="M176 566h-111l193 176h30l125 -176h-100l-55 76z" />
    <glyph glyph-name="caron" unicode="&#x2c7;" horiz-adv-x="380" 
d="M318 742h111l-193 -176h-30l-125 176h100l55 -76z" />
    <glyph glyph-name="breve" unicode="&#x2d8;" horiz-adv-x="247" 
d="M217 700h81c-12 -65 -65 -109 -136 -109c-60 0 -96 36 -96 89c0 7 1 13 2 20h81c-1 -3 -1 -5 -1 -8c0 -18 9 -27 28 -27c23 0 36 12 41 35z" />
    <glyph glyph-name="dotaccent" unicode="&#x2d9;" horiz-adv-x="287" 
d="M151 595c-27 28 -27 74 1 102c28 29 74 29 102 0c28 -28 28 -74 0 -102c-27 -27 -75 -27 -103 0z" />
    <glyph glyph-name="ring" unicode="&#x2da;" horiz-adv-x="206" 
d="M55 653c0 57 44 102 101 102c59 0 101 -45 101 -102c0 -56 -42 -98 -101 -98c-57 0 -101 43 -101 98zM120 654c0 -48 72 -48 72 0c4 51 -76 51 -72 0z" />
    <glyph glyph-name="ogonek" unicode="&#x2db;" horiz-adv-x="230" 
d="M45 -60h69c-48 -33 -72 -61 -72 -84c0 -15 8 -23 23 -23c20 0 29 9 58 42l42 -41c-41 -53 -76 -74 -127 -74c-45 0 -76 27 -76 72c0 40 28 76 83 108z" />
    <glyph glyph-name="tilde" unicode="&#x2dc;" horiz-adv-x="408" 
d="M120 577l-56 47c31 47 81 81 130 81c25 0 49 -7 70 -21c22 -13 41 -20 57 -20c19 0 42 13 69 40l56 -47c-31 -47 -81 -81 -130 -81c-25 0 -49 7 -71 20c-21 14 -40 21 -56 21c-19 0 -42 -13 -69 -40z" />
    <glyph glyph-name="hungarumlaut" unicode="&#x2dd;" horiz-adv-x="431" 
d="M129 560h-83l98 148h143zM329 560h-83l98 148h143z" />
    <glyph glyph-name="uni2206" unicode="&#x394;" horiz-adv-x="660" 
d="M576 0h-578v26l244 674h90l244 -674v-26zM449 94l-162 466l-162 -466h324z" />
    <glyph glyph-name="uni2206" unicode="&#x2206;" horiz-adv-x="660" 
d="M576 0h-578v26l244 674h90l244 -674v-26zM449 94l-162 466l-162 -466h324z" />
    <glyph glyph-name="uni2126" unicode="&#x3a9;" horiz-adv-x="688" 
d="M303 0h-233v94h128c-5 9 -12 19 -36 68c-11 25 -22 51 -31 77c-17 52 -35 132 -35 201c0 77 23 140 68 191c46 51 106 77 180 77s134 -26 179 -77c46 -51 69 -114 69 -191c0 -106 -30 -214 -89 -323c-9 -15 -13 -23 -13 -23h128v-94h-233v36c5 11 12 22 35 82
c12 30 22 60 31 90c19 61 36 155 36 232c0 116 -48 174 -143 174s-143 -58 -143 -174c0 -61 8 -126 25 -193s35 -119 52 -156l25 -55v-36z" />
    <glyph glyph-name="uni2126" unicode="&#x2126;" horiz-adv-x="688" 
d="M303 0h-233v94h128c-5 9 -12 19 -36 68c-11 25 -22 51 -31 77c-17 52 -35 132 -35 201c0 77 23 140 68 191c46 51 106 77 180 77s134 -26 179 -77c46 -51 69 -114 69 -191c0 -106 -30 -214 -89 -323c-9 -15 -13 -23 -13 -23h128v-94h-233v36c5 11 12 22 35 82
c12 30 22 60 31 90c19 61 36 155 36 232c0 116 -48 174 -143 174s-143 -58 -143 -174c0 -61 8 -126 25 -193s35 -119 52 -156l25 -55v-36z" />
    <glyph glyph-name="pi" unicode="&#x3c0;" horiz-adv-x="562" 
d="M121 410h-85v94h501v-94h-85v-410h-104v410h-123v-410h-104v410z" />
    <glyph glyph-name="uni2000" unicode="&#x2000;" horiz-adv-x="475" 
 />
    <glyph glyph-name="uni2001" unicode="&#x2001;" horiz-adv-x="951" 
 />
    <glyph glyph-name="uni2002" unicode="&#x2002;" horiz-adv-x="475" 
 />
    <glyph glyph-name="uni2003" unicode="&#x2003;" horiz-adv-x="951" 
 />
    <glyph glyph-name="uni2004" unicode="&#x2004;" horiz-adv-x="317" 
 />
    <glyph glyph-name="uni2005" unicode="&#x2005;" horiz-adv-x="237" 
 />
    <glyph glyph-name="uni2006" unicode="&#x2006;" horiz-adv-x="158" 
 />
    <glyph glyph-name="uni2007" unicode="&#x2007;" horiz-adv-x="158" 
 />
    <glyph glyph-name="uni2008" unicode="&#x2008;" horiz-adv-x="118" 
 />
    <glyph glyph-name="uni2009" unicode="&#x2009;" horiz-adv-x="190" 
 />
    <glyph glyph-name="uni200A" unicode="&#x200a;" horiz-adv-x="52" 
 />
    <glyph glyph-name="uni2010" unicode="&#x2010;" horiz-adv-x="488" 
d="M404 271h-353l17 92h353z" />
    <glyph glyph-name="uni2011" unicode="&#x2011;" horiz-adv-x="488" 
d="M404 271h-353l17 92h353z" />
    <glyph glyph-name="endash" unicode="&#x2013;" horiz-adv-x="560" 
d="M483 271h-433l17 92h433z" />
    <glyph glyph-name="emdash" unicode="&#x2014;" horiz-adv-x="747" 
d="M670 271h-620l17 92h620z" />
    <glyph glyph-name="quoteleft" unicode="&#x2018;" horiz-adv-x="285" 
d="M79 708h142l31 -222h-77z" />
    <glyph glyph-name="quoteright" unicode="&#x2019;" horiz-adv-x="252" 
d="M127 486h-77l116 222h143z" />
    <glyph glyph-name="quotesinglbase" unicode="&#x201a;" horiz-adv-x="340" 
d="M72 -14h-77l116 222h143z" />
    <glyph glyph-name="quotedblleft" unicode="&#x201c;" horiz-adv-x="485" 
d="M79 708h142l31 -222h-77zM279 708h142l31 -222h-77z" />
    <glyph glyph-name="quotedblright" unicode="&#x201d;" horiz-adv-x="452" 
d="M127 486h-77l116 222h143zM327 486h-77l116 222h143z" />
    <glyph glyph-name="quotedblbase" unicode="&#x201e;" horiz-adv-x="540" 
d="M72 -14h-77l116 222h143zM272 -14h-77l116 222h143z" />
    <glyph glyph-name="dagger" unicode="&#x2020;" horiz-adv-x="461" 
d="M191 412h-126l16 92h127l48 246h101l-48 -246h127l-17 -92h-127l-90 -462h-101z" />
    <glyph glyph-name="daggerdbl" unicode="&#x2021;" horiz-adv-x="461" 
d="M191 412h-126l16 92h127l48 246h101l-48 -246h127l-17 -92h-127l-25 -124h127l-17 -92h-127l-48 -246h-101l48 246h-126l17 92h126z" />
    <glyph glyph-name="bullet" unicode="&#x2022;" horiz-adv-x="369" 
d="M100 255c-20 21 -30 46 -30 75s10 54 30 74c21 21 46 31 75 31s54 -10 74 -31c21 -20 31 -45 31 -74s-10 -54 -31 -75c-20 -20 -45 -30 -74 -30s-54 10 -75 30z" />
    <glyph glyph-name="ellipsis" unicode="&#x2026;" horiz-adv-x="827" 
d="M44 121c29 29 77 29 105 0c29 -28 29 -76 0 -105c-28 -28 -76 -28 -105 0c-28 29 -28 77 0 105zM312 121c29 29 77 29 105 0c29 -28 29 -76 0 -105c-28 -28 -76 -28 -105 0c-28 29 -28 77 0 105zM580 121c29 29 77 29 105 0c29 -28 29 -76 0 -105c-28 -28 -76 -28 -105 0
c-28 29 -28 77 0 105z" />
    <glyph glyph-name="uni202F" unicode="&#x202f;" horiz-adv-x="190" 
 />
    <glyph glyph-name="perthousand" unicode="&#x2030;" horiz-adv-x="1268" 
d="M62 524c0 55 18 99 55 134c35 33 81 50 138 50c40 0 73 -13 98 -40c26 -26 39 -58 39 -96c0 -51 -18 -96 -55 -134c-31 -33 -77 -50 -138 -50c-40 0 -73 13 -99 39c-25 27 -38 59 -38 97zM241 625c-26 0 -47 -8 -64 -25s-26 -39 -26 -66c0 -37 23 -63 62 -63
c26 0 47 8 64 25s26 39 26 66c0 37 -23 63 -62 63zM467 128c0 55 18 99 55 134c35 33 81 50 138 50c40 0 73 -13 98 -40c26 -26 39 -58 39 -96c0 -55 -18 -99 -55 -134c-35 -33 -81 -50 -138 -50c-40 0 -73 13 -99 39c-25 27 -38 59 -38 97zM646 229c-26 0 -47 -8 -64 -25
s-26 -39 -26 -66c0 -37 23 -63 62 -63c26 0 47 8 64 25s26 39 26 66c0 37 -23 63 -62 63zM857 128c0 55 18 99 55 134c35 33 81 50 138 50c40 0 73 -13 98 -40c26 -26 39 -58 39 -96c0 -55 -18 -99 -55 -134c-35 -33 -81 -50 -138 -50c-40 0 -73 13 -99 39
c-25 27 -38 59 -38 97zM1036 229c-26 0 -47 -8 -64 -25s-26 -39 -26 -66c0 -37 23 -63 62 -63c26 0 47 8 64 25s26 39 26 66c0 37 -23 63 -62 63zM60 15l678 720l51 -49l-678 -720z" />
    <glyph glyph-name="guilsinglleft" unicode="&#x2039;" horiz-adv-x="399" 
d="M284 68l-252 208l15 74l332 202l-24 -121l-210 -124l160 -132z" />
    <glyph glyph-name="guilsinglright" unicode="&#x203a;" horiz-adv-x="399" 
d="M114 552l252 -208l-15 -74l-332 -202l24 121l210 124l-160 132z" />
    <glyph glyph-name="fraction" unicode="&#x2044;" horiz-adv-x="741" 
d="M6 15l678 720l51 -49l-678 -720z" />
    <glyph glyph-name="uni205F" unicode="&#x205f;" horiz-adv-x="237" 
 />
    <glyph glyph-name="uni2070" unicode="&#x2070;" horiz-adv-x="378" 
d="M244 704c77 0 128 -58 128 -155c0 -67 -18 -126 -54 -177c-35 -51 -86 -76 -151 -76c-77 0 -128 58 -128 155c0 67 18 125 53 176c36 51 87 77 152 77zM230 632c-36 0 -63 -19 -82 -56s-28 -77 -28 -118c0 -60 20 -90 61 -90c36 0 63 19 82 56s28 77 28 118
c0 60 -20 90 -61 90z" />
    <glyph glyph-name="uni2074" unicode="&#x2074;" horiz-adv-x="395" 
d="M274 300h-78l13 71h-174l7 35l217 294h92l-50 -257h48l-14 -72h-48zM251 586l-102 -143h74z" />
    <glyph glyph-name="uni2075" unicode="&#x2075;" horiz-adv-x="370" 
d="M49 410l73 8c0 -31 19 -50 50 -50c47 0 76 28 76 77c0 33 -18 55 -50 55c-24 0 -47 -10 -70 -29l-58 13l64 216h217l-14 -72h-152l-28 -82c19 13 43 19 70 19c63 0 102 -44 102 -107c0 -100 -61 -162 -160 -162c-72 0 -120 49 -120 114z" />
    <glyph glyph-name="uni2076" unicode="&#x2076;" horiz-adv-x="358" 
d="M234 559c59 0 99 -41 99 -109c0 -93 -61 -154 -161 -154c-75 0 -120 49 -120 114c0 33 13 67 39 102l147 192h89l-118 -149c8 3 16 4 25 4zM204 487c-39 0 -70 -29 -70 -69c0 -31 19 -50 47 -50c41 0 71 30 71 71c0 29 -19 48 -48 48z" />
    <glyph glyph-name="uni2077" unicode="&#x2077;" horiz-adv-x="321" 
d="M95 700h255l-5 -30l-224 -370h-82l198 328h-156z" />
    <glyph glyph-name="uni2078" unicode="&#x2078;" horiz-adv-x="313" 
d="M230 704c63 0 101 -35 101 -94c0 -40 -21 -71 -62 -94c27 -17 41 -44 41 -81c0 -85 -65 -139 -153 -139c-75 0 -116 41 -116 104c0 56 34 99 78 116c-21 13 -32 35 -32 67c0 41 17 72 50 95c25 17 56 26 93 26zM186 478c-39 0 -66 -28 -66 -64c0 -28 18 -46 47 -46
c37 0 64 27 64 63c0 31 -15 47 -45 47zM219 646c-32 0 -60 -25 -60 -57c0 -29 13 -43 40 -43c35 0 60 26 60 59c0 27 -13 41 -40 41z" />
    <glyph glyph-name="uni2079" unicode="&#x2079;" horiz-adv-x="358" 
d="M161 441c-59 0 -99 41 -99 109c0 93 61 154 161 154c75 0 120 -49 120 -114c0 -33 -13 -67 -39 -102l-147 -192h-89l118 149c-8 -3 -16 -4 -25 -4zM191 513c39 0 70 29 70 69c0 31 -19 50 -47 50c-43 0 -71 -30 -71 -71c0 -29 19 -48 48 -48z" />
    <glyph glyph-name="Euro" unicode="&#x20ac;" horiz-adv-x="615" 
d="M124 380h-89l63 92h52c59 155 173 236 309 236c95 0 160 -48 185 -121l-98 -50c-19 51 -55 77 -106 77c-85 0 -146 -47 -183 -142h236l-64 -92h-200l-11 -60h246l-64 -92h-190c0 -92 48 -142 129 -142c53 0 86 23 130 76l78 -50c-54 -80 -130 -120 -227 -120
c-66 0 -119 21 -158 64s-59 101 -59 172h-97l64 92h43z" />
    <glyph glyph-name="trademark" unicode="&#x2122;" horiz-adv-x="831" 
d="M182 624h-105l14 76h295l-14 -76h-105l-63 -324h-85zM456 300h-85l77 400h86l49 -244l148 244h91l-77 -400h-85l44 226l-112 -189h-54l-38 189z" />
    <glyph glyph-name="partialdiff" unicode="&#x2202;" horiz-adv-x="614" 
d="M46 213c0 85 26 156 79 213s125 86 214 86c43 0 75 -10 98 -30c-13 89 -57 134 -132 134c-45 0 -88 -29 -107 -81l-103 31c13 41 39 75 78 102s83 40 131 40c176 0 245 -109 245 -346c0 -100 -21 -184 -66 -256c-45 -71 -127 -114 -235 -114c-63 0 -112 20 -148 61
s-54 94 -54 160zM327 420c-50 0 -91 -21 -123 -62c-31 -41 -47 -88 -47 -140c0 -81 34 -134 105 -134c51 0 91 21 122 63c31 43 47 91 47 144c0 86 -35 129 -104 129z" />
    <glyph glyph-name="product" unicode="&#x220f;" horiz-adv-x="531" 
d="M176 0h-104v700h387v-700h-104v606h-179v-606z" />
    <glyph glyph-name="summation" unicode="&#x2211;" horiz-adv-x="552" 
d="M482 94v-94h-430v45l192 305l-192 305v45h430v-94h-288l154 -244v-24l-154 -244h288z" />
    <glyph glyph-name="minus" unicode="&#x2212;" horiz-adv-x="578" 
d="M489 271h-445l17 92h445z" />
    <glyph glyph-name="radical" unicode="&#x221a;" horiz-adv-x="546" 
d="M284 148l162 560h98l-217 -708h-83l-98 295h-110v94h168z" />
    <glyph glyph-name="infinity" unicode="&#x221e;" horiz-adv-x="877" 
d="M640 168c-73 0 -151 34 -198 99c-47 -65 -125 -99 -198 -99c-119 0 -189 76 -189 191s70 191 189 191c73 0 151 -34 198 -99c47 65 125 99 198 99c119 0 189 -76 189 -191s-70 -191 -189 -191zM259 260c44 0 97 31 132 99c-35 68 -88 99 -132 99c-60 0 -101 -35 -101 -99
s41 -99 101 -99zM625 260c60 0 101 35 101 99s-41 99 -101 99c-44 0 -96 -31 -131 -99c35 -68 87 -99 131 -99z" />
    <glyph glyph-name="integral" unicode="&#x222b;" horiz-adv-x="437" 
d="M110 -41l112 571c23 119 91 178 203 178c36 0 63 -6 80 -18l-38 -88c-16 9 -35 14 -57 14c-45 0 -72 -26 -83 -79l-112 -571c-23 -119 -91 -178 -203 -178c-36 0 -63 6 -80 18l38 88c16 -9 35 -14 57 -14c45 0 72 26 83 79z" />
    <glyph glyph-name="approxequal" unicode="&#x2248;" horiz-adv-x="573" 
d="M77 357l-46 60c44 67 98 101 162 101c30 0 63 -9 100 -26s66 -26 88 -26c33 0 66 16 99 47l46 -60c-44 -67 -98 -101 -162 -101c-29 0 -63 9 -100 26s-66 26 -88 26c-33 0 -66 -16 -99 -47zM76 157l-46 60c44 67 98 101 162 101c29 0 63 -9 100 -26s67 -26 88 -26
c33 0 66 16 99 47l46 -60c-44 -67 -98 -101 -162 -101c-29 0 -63 9 -100 26s-66 26 -88 26c-33 0 -66 -16 -99 -47z" />
    <glyph glyph-name="notequal" unicode="&#x2260;" horiz-adv-x="605" 
d="M271 347h-176v92h228l61 107l80 -46l-36 -61h82v-92h-134l-42 -74h176v-92h-228l-61 -107l-80 46l36 61h-82v92h134z" />
    <glyph glyph-name="lessequal" unicode="&#x2264;" horiz-adv-x="573" 
d="M454 158l-364 192v104l364 192v-111l-253 -133l253 -133v-111zM501 0h-457v92h457v-92z" />
    <glyph glyph-name="greaterequal" unicode="&#x2265;" horiz-adv-x="573" 
d="M98 646l364 -192v-104l-364 -192v111l253 133l-253 133v111zM51 92h457v-92h-457v92z" />
    <glyph glyph-name="lozenge" unicode="&#x25ca;" horiz-adv-x="524" 
d="M313 0h-102l-179 350l179 350h102l179 -350zM135 350l127 -258l127 258l-127 257z" />
    <glyph glyph-name="CR" horiz-adv-x="227" 
 />
    <glyph glyph-name="apple" horiz-adv-x="780" 
d="M686 617v-595c0 -12 -10 -22 -22 -22c-2 0 -4 0 -7 1l-267 77l-267 -77c-3 -1 -5 -1 -7 -1c-12 0 -22 10 -22 22v595c0 11 5 19 16 22l270 78c8 3 12 3 20 0l270 -78c11 -3 16 -11 16 -22zM368 366v303l-230 -67c4 -63 28 -116 71 -161c44 -45 97 -70 159 -75zM642 602
l-230 67v-303c62 5 115 30 158 75c44 45 68 98 72 161zM137 463v-412l231 67v204c-97 8 -183 61 -231 141zM412 118l231 -67v412c-49 -80 -134 -133 -231 -141v-204z" />
    <glyph glyph-name="No" horiz-adv-x="1307" 
d="M469 196l98 504h111l-137 -700h-119l-183 502l-98 -502h-111l137 700h119zM744 405c0 93 26 165 79 218c56 57 128 85 216 85c63 0 113 -21 151 -62s57 -93 57 -155c0 -93 -26 -165 -79 -218c-56 -57 -128 -85 -216 -85c-63 0 -113 21 -151 62s-57 93 -57 155zM1025 616
c-49 0 -90 -21 -123 -63c-31 -39 -46 -85 -46 -138c0 -84 43 -135 110 -135c49 0 90 21 123 63c31 39 46 85 46 138c0 84 -43 135 -110 135zM1132 0h-445l17 92h445z" />
    <glyph glyph-name="zero.tn" 
d="M361 708c124 0 196 -89 196 -253c0 -83 -12 -164 -47 -247c-48 -120 -137 -216 -285 -216c-124 0 -196 89 -196 253c0 83 13 164 46 247c50 120 138 216 286 216zM342 612c-71 0 -128 -53 -160 -128c-31 -75 -46 -154 -46 -226c0 -117 33 -170 108 -170
c71 0 128 53 159 128c32 75 47 154 47 226c0 117 -33 170 -108 170z" />
    <glyph glyph-name="one.tn" 
d="M171 584l217 116h44l-137 -700h-107l107 550l-146 -78z" />
    <glyph glyph-name="two.tn" 
d="M440 0h-429l8 44l324 340c28 29 48 53 59 72s17 43 17 72c0 52 -29 84 -78 84c-55 0 -92 -36 -113 -108l-104 19c29 113 110 185 229 185c111 0 176 -63 176 -167c0 -71 -29 -137 -88 -199l-232 -246h249z" />
    <glyph glyph-name="three.tn" 
d="M40 193l105 20c7 -75 47 -125 112 -125c87 0 133 61 133 152c0 76 -44 119 -107 119c-22 0 -43 -4 -63 -13l-47 59l180 199h-220l18 96h393l-7 -36l-215 -232c9 2 19 3 28 3c87 0 147 -66 147 -183c0 -75 -17 -134 -50 -176c-45 -56 -112 -84 -203 -84
c-60 0 -108 19 -145 58c-36 39 -56 87 -59 143z" />
    <glyph glyph-name="four.tn" 
d="M375 0h-107l28 140h-297l9 48l385 512h119l-91 -464h79l-18 -96h-79zM371 529l-214 -293h157z" />
    <glyph glyph-name="five.tn" 
d="M42 184l102 18v-11c0 -64 41 -103 104 -103c81 0 140 68 140 172c0 69 -36 108 -101 108c-54 0 -103 -24 -148 -72l-66 14l110 390h355l-18 -96h-262l-55 -175c29 23 65 35 108 35c117 0 184 -64 184 -196c0 -83 -24 -149 -72 -200c-47 -51 -112 -76 -194 -76
c-55 0 -100 17 -135 50s-53 75 -53 124c0 8 0 14 1 18z" />
    <glyph glyph-name="six.tn" 
d="M313 448c111 0 184 -74 184 -194c0 -79 -23 -142 -70 -190s-109 -72 -186 -72c-61 0 -109 17 -146 52s-55 81 -55 137c0 59 22 117 65 174l269 353h125l-205 -262c5 1 12 2 19 2zM294 352c-42 0 -77 -15 -105 -46c-28 -30 -42 -67 -42 -110c0 -65 39 -108 96 -108
c43 0 78 14 105 43c28 29 42 66 42 110c0 75 -39 111 -96 111z" />
    <glyph glyph-name="seven.tn" 
d="M173 700h410l-10 -48l-393 -652h-110l366 604h-282z" />
    <glyph glyph-name="eight.tn" 
d="M362 708c104 0 168 -61 168 -174c0 -36 -11 -69 -34 -99s-48 -50 -75 -60c40 -20 74 -73 74 -144c0 -68 -19 -123 -58 -165c-45 -49 -113 -74 -202 -74c-119 0 -196 70 -196 187c0 87 55 162 139 199c-35 31 -52 73 -52 126c0 63 25 114 74 154c41 33 95 50 162 50z
M289 320c-39 0 -73 -12 -101 -36c-28 -23 -42 -55 -42 -94c0 -60 41 -102 98 -102c41 0 75 11 102 34c28 24 42 58 42 101c0 63 -39 97 -99 97zM346 616c-32 0 -60 -11 -83 -32s-34 -47 -34 -78c0 -53 32 -87 79 -87c69 0 119 48 119 113c0 53 -34 84 -81 84z" />
    <glyph glyph-name="nine.tn" 
d="M266 252c-111 0 -184 74 -184 194c0 79 23 142 70 190s109 72 186 72c61 0 109 -18 146 -53s55 -80 55 -136c0 -59 -22 -117 -65 -174l-269 -353h-125l205 262c-5 -1 -12 -2 -19 -2zM285 348c42 0 77 15 105 45c28 31 42 68 42 111c0 65 -39 108 -96 108
c-43 0 -78 -15 -106 -44c-27 -29 -41 -65 -41 -109c0 -75 39 -111 96 -111z" />
    </font>
</defs>
</svg>
