<?xml version="1.0" standalone="no"?>
<!DOCTYPE svg PUBLIC "-//W3C//DTD SVG 1.1//EN" "http://www.w3.org/Graphics/SVG/1.1/DTD/svg11.dtd" >
<svg xmlns="http://www.w3.org/2000/svg" xmlns:xlink="http://www.w3.org/1999/xlink" version="1.1">
<metadata>
Created by FontForge 20170910 at Fri Aug 27 16:42:11 2010
 By Jimmy Wärting
Copyright (c) 2009 by The Entente (AS &#38; EH). All rights reserved.
</metadata>
<defs>
<font id="Apercu-Medium" horiz-adv-x="566" >
  <font-face 
    font-family="Apercu"
    font-weight="500"
    font-stretch="normal"
    units-per-em="1000"
    panose-1="2 0 6 6 4 0 0 2 0 4"
    ascent="800"
    descent="-200"
    x-height="504"
    cap-height="700"
    bbox="-80 -251 1201 951"
    underline-thickness="50"
    underline-position="-100"
    unicode-range="U+0020-FB02"
  />
<missing-glyph horiz-adv-x="645" 
d="M551 0h-457v700h457v-700zM447 94v512h-249v-512h249z" />
    <glyph glyph-name="uniFB01" unicode="fi" horiz-adv-x="561" 
d="M103 412h-65v92h65v13c0 64 20 112 61 143c41 32 92 48 151 48c57 0 103 -10 138 -29l-33 -86c-33 15 -67 23 -102 23c-69 0 -111 -40 -111 -99v-13h274v-504h-104v412h-170v-412h-104v412z" />
    <glyph glyph-name="uniFB02" unicode="fl" horiz-adv-x="605" 
d="M103 412h-65v92h65v26c0 119 64 178 169 178h253v-708h-104v616h-146c-45 0 -68 -26 -68 -79v-33h111v-92h-111v-412h-104v412z" />
    <glyph glyph-name=".notdef" horiz-adv-x="645" 
d="M551 0h-457v700h457v-700zM447 94v512h-249v-512h249z" />
    <glyph glyph-name="NULL" horiz-adv-x="0" 
 />
    <glyph glyph-name="CR.001" horiz-adv-x="333" 
 />
    <glyph glyph-name="space" unicode=" " horiz-adv-x="258" 
 />
    <glyph glyph-name="exclam" unicode="!" horiz-adv-x="351" 
d="M134 221l-27 479h142l-27 -479h-88zM123 17c-28 29 -28 79 0 107c29 29 81 29 109 0c29 -28 29 -78 0 -107c-28 -28 -80 -28 -109 0z" />
    <glyph glyph-name="quotedbl" unicode="&#x22;" horiz-adv-x="469" 
d="M184 469h-70l-30 239h130zM355 469h-70l-30 239h130z" />
    <glyph glyph-name="numbersign" unicode="#" horiz-adv-x="726" 
d="M226 417h-118v82h135l41 201h88l-41 -201h125l41 201h88l-41 -201h114v-82h-131l-27 -134h118v-82h-135l-41 -201h-88l41 201h-125l-41 -201h-88l41 201h-114v82h131zM439 417h-125l-27 -134h125z" />
    <glyph glyph-name="dollar" unicode="$" horiz-adv-x="536" 
d="M460 590l-89 -59c-27 51 -62 77 -104 77c-44 0 -73 -33 -73 -76c0 -51 47 -86 106 -114c84 -37 195 -87 194 -213c0 -109 -69 -189 -170 -208v-87h-100v87c-93 19 -159 91 -180 190l90 57c25 -99 72 -148 141 -148c63 0 107 44 107 105c0 137 -298 107 -298 323
c0 45 13 83 39 116s60 54 101 63v87h100v-89c57 -15 103 -52 136 -111z" />
    <glyph glyph-name="percent" unicode="%" horiz-adv-x="840" 
d="M102 434c-31 31 -47 69 -47 114s16 82 47 113s70 47 115 47s84 -16 115 -47s47 -68 47 -113s-16 -83 -47 -114s-70 -46 -115 -46s-84 15 -115 46zM163 603c-27 -28 -27 -82 0 -111c13 -14 31 -21 54 -21s41 7 54 21c27 29 27 83 0 111c-13 15 -31 22 -54 22
s-41 -7 -54 -22zM508 38c-31 31 -47 69 -47 114s16 82 47 113s70 47 115 47s84 -16 115 -47s47 -68 47 -113s-16 -83 -47 -114s-70 -46 -115 -46s-84 15 -115 46zM569 207c-27 -28 -27 -82 0 -111c13 -14 31 -21 54 -21s41 7 54 21c27 29 27 83 0 111c-13 15 -31 22 -54 22
s-41 -7 -54 -22zM128 13l539 720l58 -45l-539 -720z" />
    <glyph glyph-name="ampersand" unicode="&#x26;" horiz-adv-x="683" 
d="M144 559c0 41 15 76 44 105c30 29 68 44 115 44c49 0 87 -14 116 -43c29 -28 43 -60 43 -97c0 -75 -41 -134 -123 -177l128 -167c11 17 26 56 47 115l63 -71c-13 -44 -30 -84 -52 -120l112 -148h-117l-52 71c-41 -48 -120 -79 -188 -79c-62 0 -113 19 -153 58
c-39 39 -59 90 -59 153c0 97 43 170 129 220c-35 48 -53 93 -53 136zM412 143l-157 205c-51 -29 -87 -83 -87 -150s47 -110 111 -110c56 0 100 18 133 55zM242 555c0 -31 12 -63 37 -95c57 27 85 60 85 100c0 36 -24 56 -61 56s-61 -26 -61 -61z" />
    <glyph glyph-name="quotesingle" unicode="'" horiz-adv-x="298" 
d="M184 469h-70l-30 239h130z" />
    <glyph glyph-name="parenleft" unicode="(" horiz-adv-x="304" 
d="M173 750h104c-37 -56 -64 -115 -81 -177c-17 -61 -25 -136 -25 -223s8 -162 25 -224c17 -61 44 -120 81 -176h-104c-34 57 -60 116 -79 176c-18 60 -27 135 -27 224s9 164 27 224c19 60 45 119 79 176z" />
    <glyph glyph-name="parenright" unicode=")" horiz-adv-x="304" 
d="M27 750h104c34 -57 60 -116 78 -176c19 -60 28 -135 28 -224s-9 -164 -28 -224c-18 -60 -44 -119 -78 -176h-104c37 56 63 115 80 176c17 62 26 137 26 224s-9 162 -26 223c-17 62 -43 121 -80 177z" />
    <glyph glyph-name="asterisk" unicode="*" horiz-adv-x="484" 
d="M198 708h88v-124l119 39l25 -85l-118 -39l74 -101l-69 -51l-75 100l-75 -100l-69 51l74 101l-118 39l25 85l119 -39v124z" />
    <glyph glyph-name="plus" unicode="+" horiz-adv-x="564" 
d="M236 363v176h92v-176h177v-92h-177v-177h-92v177h-176v92h176z" />
    <glyph glyph-name="comma" unicode="," horiz-adv-x="343" 
d="M140 -132h-78l71 260h143z" />
    <glyph glyph-name="hyphen" unicode="-" horiz-adv-x="489" 
d="M421 271h-353v92h353v-92z" />
    <glyph glyph-name="period" unicode="." horiz-adv-x="318" 
d="M106 121c29 29 77 29 105 0c29 -28 29 -76 0 -105c-28 -28 -76 -28 -105 0c-28 29 -28 77 0 105z" />
    <glyph glyph-name="slash" unicode="/" horiz-adv-x="547" 
d="M13 -50l436 800h103l-436 -800h-103z" />
    <glyph glyph-name="zero" unicode="0" horiz-adv-x="632" 
d="M129 613c43 63 106 95 187 95s144 -32 187 -95s65 -151 65 -263s-22 -200 -65 -263s-106 -95 -187 -95s-144 32 -187 95s-65 151 -65 263s22 200 65 263zM425 544c-24 45 -60 68 -109 68s-85 -23 -110 -68c-24 -45 -36 -110 -36 -194s12 -149 36 -194
c25 -45 61 -68 110 -68s85 23 109 68c25 45 37 110 37 194s-12 149 -37 194z" />
    <glyph glyph-name="one" unicode="1" horiz-adv-x="396" 
d="M71 584l194 116h43v-700h-106v550l-131 -78v112z" />
    <glyph glyph-name="two" unicode="2" horiz-adv-x="575" 
d="M502 0h-434v44l258 331c44 55 56 86 56 130c0 65 -33 107 -96 107c-59 0 -96 -42 -104 -107l-100 19c3 53 24 96 62 131c39 35 86 53 142 53c60 0 109 -18 146 -54c38 -35 57 -84 57 -145c0 -57 -19 -111 -58 -160l-199 -253h270v-96z" />
    <glyph glyph-name="three" unicode="3" horiz-adv-x="580" 
d="M59 193l103 13c13 -79 55 -118 126 -118c75 0 125 50 125 135c0 88 -50 137 -125 137c-20 0 -40 -5 -61 -14l-42 56l145 202h-237v96h390v-36l-170 -232c8 2 18 3 29 3c53 0 96 -20 128 -60c33 -39 49 -90 49 -152c0 -67 -22 -122 -67 -166c-44 -43 -99 -65 -164 -65
c-61 0 -113 19 -157 57s-68 86 -72 144z" />
    <glyph glyph-name="four" unicode="4" horiz-adv-x="609" 
d="M469 0h-106v140h-302v48l296 512h112v-464h82v-96h-82v-140zM363 540l-170 -304h170v304z" />
    <glyph glyph-name="five" unicode="5" horiz-adv-x="579" 
d="M75 183l103 19c12 -79 55 -114 115 -114c75 0 117 55 117 140s-41 140 -117 140c-53 0 -98 -24 -134 -72l-69 14l39 390h348v-96h-259l-21 -175c28 23 62 35 102 35c69 0 122 -22 160 -66c38 -43 57 -100 57 -170c0 -69 -20 -126 -61 -170c-40 -44 -94 -66 -162 -66
c-119 0 -205 71 -218 191z" />
    <glyph glyph-name="six" unicode="6" horiz-adv-x="578" 
d="M303 448c64 0 116 -21 157 -64s61 -97 61 -164c0 -65 -21 -119 -64 -163c-42 -43 -95 -65 -160 -65s-118 22 -161 65c-42 44 -63 98 -63 163c0 45 11 87 34 127l208 361h118l-153 -264c5 3 13 4 23 4zM179 220c0 -77 49 -132 118 -132s118 55 118 132
c0 81 -47 132 -118 132s-118 -51 -118 -132z" />
    <glyph glyph-name="seven" unicode="7" horiz-adv-x="492" 
d="M52 700h414v-48l-268 -652h-106l249 604h-289v96z" />
    <glyph glyph-name="eight" unicode="8" horiz-adv-x="592" 
d="M494 519c0 -57 -23 -104 -70 -142c64 -37 96 -94 96 -171c0 -65 -22 -117 -65 -156s-96 -58 -159 -58s-116 19 -159 58s-65 91 -65 156c0 77 32 134 96 171c-47 37 -70 84 -70 142c0 53 19 97 56 134s85 55 142 55s105 -18 142 -55s56 -81 56 -134zM380 290
c-22 20 -50 30 -84 30s-62 -10 -85 -30c-22 -20 -33 -48 -33 -84s11 -65 34 -86s51 -32 84 -32s61 11 84 32s34 50 34 86s-11 64 -34 84zM201 518c0 -57 40 -99 95 -99s95 42 95 99c0 56 -40 98 -95 98s-95 -42 -95 -98z" />
    <glyph glyph-name="nine" unicode="9" horiz-adv-x="579" 
d="M292 252c-64 0 -116 21 -157 64s-61 97 -61 164c0 65 21 119 63 162c43 44 96 66 161 66s118 -22 160 -66c43 -43 64 -97 64 -162c0 -45 -11 -87 -34 -127l-208 -361h-118l153 264c-5 -3 -13 -4 -23 -4zM416 480c0 77 -49 132 -118 132s-118 -55 -118 -132
c0 -81 47 -132 118 -132s118 51 118 132z" />
    <glyph glyph-name="colon" unicode=":" horiz-adv-x="318" 
d="M106 121c29 29 77 29 105 0c29 -28 29 -76 0 -105c-28 -28 -76 -28 -105 0c-28 29 -28 77 0 105zM106 444c29 29 77 29 105 0c29 -28 29 -76 0 -105c-28 -28 -76 -28 -105 0c-28 29 -28 77 0 105z" />
    <glyph glyph-name="semicolon" unicode=";" horiz-adv-x="318" 
d="M106 444c29 29 77 29 105 0c29 -28 29 -76 0 -105c-28 -28 -76 -28 -105 0c-28 29 -28 77 0 105zM110 -132h-78l71 260h143z" />
    <glyph glyph-name="less" unicode="&#x3c;" horiz-adv-x="465" 
d="M412 66l-364 192v104l364 192v-111l-254 -133l254 -133v-111z" />
    <glyph glyph-name="equal" unicode="=" horiz-adv-x="605" 
d="M510 347h-415v92h415v-92zM510 181h-415v92h415v-92z" />
    <glyph glyph-name="greater" unicode="&#x3e;" horiz-adv-x="465" 
d="M53 554l364 -192v-104l-364 -192v111l254 133l-254 133v111z" />
    <glyph glyph-name="question" unicode="?" horiz-adv-x="456" 
d="M288 343l81 -31c-21 -70 -68 -105 -139 -105c-81 0 -136 48 -136 124c0 56 28 97 85 123l83 38c36 17 49 35 49 70c0 36 -32 61 -73 61c-50 0 -83 -27 -98 -82l-95 16c16 89 86 151 187 151c104 0 179 -58 179 -154c0 -54 -24 -93 -71 -116l-113 -55
c-28 -13 -42 -32 -42 -56c0 -25 16 -41 43 -41c31 0 47 20 60 57zM175 17c-28 29 -28 79 0 107c29 29 81 29 109 0c29 -28 29 -78 0 -107c-28 -28 -80 -28 -109 0z" />
    <glyph glyph-name="at" unicode="@" horiz-adv-x="910" 
d="M574 466l11 43h76l-24 -253l-1 -17c0 -26 13 -39 39 -39c50 0 75 51 75 152c0 192 -96 274 -276 274c-53 0 -101 -12 -145 -35c-88 -45 -154 -150 -154 -293c0 -65 15 -120 44 -167c59 -93 150 -133 254 -133c31 0 55 1 72 2c36 3 104 18 169 51l35 -85
c-53 -24 -98 -40 -134 -48s-83 -12 -142 -12c-120 0 -217 35 -292 106c-74 71 -111 168 -111 289c0 127 38 228 114 303c77 76 175 114 295 114c239 0 371 -135 371 -366c0 -156 -70 -244 -179 -244c-51 0 -96 27 -113 67c-29 -45 -73 -67 -130 -67c-111 0 -175 79 -175 187
c0 63 20 116 59 158c40 42 91 63 154 63c50 0 86 -17 108 -50zM459 424c-65 0 -108 -52 -108 -132c0 -53 31 -92 84 -92c77 0 113 60 113 132c0 60 -34 92 -89 92z" />
    <glyph glyph-name="A" unicode="A" horiz-adv-x="608" 
d="M9 0l243 700h104l243 -700h-112l-58 174h-250l-58 -174h-112zM396 278l-92 283l-92 -283h184z" />
    <glyph glyph-name="B" unicode="B" horiz-adv-x="623" 
d="M94 0v700h248c120 0 196 -66 196 -183c0 -55 -30 -114 -71 -135c67 -28 107 -95 107 -176c0 -131 -81 -206 -220 -206h-260zM332 596h-128v-172h128c64 0 96 29 96 86s-32 86 -96 86zM339 320h-135v-216h135c82 0 123 36 123 108s-41 108 -123 108z" />
    <glyph glyph-name="C" unicode="C" horiz-adv-x="695" 
d="M658 496l-104 -26c-36 92 -87 134 -179 134c-124 0 -212 -90 -212 -254s88 -254 212 -254c92 0 143 42 179 134l104 -26c-36 -135 -136 -212 -283 -212c-90 0 -167 31 -230 94s-94 151 -94 264s31 200 94 263s140 95 230 95c147 0 247 -77 283 -212z" />
    <glyph glyph-name="D" unicode="D" horiz-adv-x="673" 
d="M94 0v700h206c90 0 166 -30 228 -91c63 -61 94 -147 94 -259s-31 -198 -94 -259c-62 -61 -138 -91 -228 -91h-206zM268 596h-64v-492h64c123 0 242 55 242 246s-119 246 -242 246z" />
    <glyph glyph-name="E" unicode="E" horiz-adv-x="568" 
d="M94 0v700h415v-104h-305v-172h246v-104h-246v-216h315v-104h-425z" />
    <glyph glyph-name="F" unicode="F" horiz-adv-x="549" 
d="M94 0v700h424v-104h-314v-181h253v-104h-253v-311h-110z" />
    <glyph glyph-name="G" unicode="G" horiz-adv-x="720" 
d="M657 0h-96l-8 87c-29 -51 -93 -95 -184 -95c-89 0 -164 31 -226 92c-61 61 -92 150 -92 266s31 205 94 266s139 92 230 92c73 0 134 -20 183 -60c49 -39 81 -91 96 -156l-101 -31c-33 95 -93 143 -178 143c-125 0 -212 -90 -212 -254c0 -168 85 -254 212 -254
c104 0 163 68 172 160h-136v97h246v-353z" />
    <glyph glyph-name="H" unicode="H" horiz-adv-x="692" 
d="M204 0h-110v700h110v-274h284v274h110v-700h-110v322h-284v-322z" />
    <glyph glyph-name="I" unicode="I" horiz-adv-x="298" 
d="M204 0h-110v700h110v-700z" />
    <glyph glyph-name="J" unicode="J" horiz-adv-x="512" 
d="M324 222v478h110v-473c0 -80 -20 -139 -60 -178c-40 -38 -91 -57 -154 -57c-60 0 -109 17 -146 52s-60 79 -68 132l111 23c12 -65 48 -103 103 -103c68 0 104 35 104 126z" />
    <glyph glyph-name="K" unicode="K" horiz-adv-x="621" 
d="M94 0v700h110v-269l250 269h134l-282 -313l305 -387h-141l-266 343v-343h-110z" />
    <glyph glyph-name="L" unicode="L" horiz-adv-x="522" 
d="M94 0v700h110v-596h302v-104h-412z" />
    <glyph glyph-name="M" unicode="M" horiz-adv-x="796" 
d="M204 0h-110v700h130l174 -466l174 466h130v-700h-110v472l-155 -408h-78l-155 408v-472z" />
    <glyph glyph-name="N" unicode="N" horiz-adv-x="703" 
d="M499 196v504h110v-700h-118l-287 502v-502h-110v700h118z" />
    <glyph glyph-name="O" unicode="O" horiz-adv-x="744" 
d="M143 614c62 63 138 94 229 94s167 -31 228 -94c62 -62 93 -150 93 -264s-31 -202 -93 -265c-61 -62 -137 -93 -228 -93s-167 31 -229 93c-61 63 -92 151 -92 265s31 202 92 264zM521 539c-39 43 -89 65 -149 65s-110 -22 -150 -65c-39 -43 -59 -106 -59 -189
s20 -146 59 -189c40 -43 90 -65 150 -65s110 22 149 65c40 43 60 106 60 189s-20 146 -60 189z" />
    <glyph glyph-name="P" unicode="P" horiz-adv-x="589" 
d="M345 286h-141v-286h-110v700h251c68 0 121 -19 159 -58c39 -39 58 -88 58 -149s-19 -110 -58 -149c-38 -39 -91 -58 -159 -58zM204 390h146c63 0 100 38 100 103s-37 103 -100 103h-146v-206z" />
    <glyph glyph-name="Q" unicode="Q" horiz-adv-x="744" 
d="M693 350c0 -84 -18 -156 -54 -215l70 -69l-74 -74l-66 65c-55 -43 -121 -65 -197 -65c-91 0 -167 31 -229 93c-61 63 -92 151 -92 265s31 202 92 264c62 63 138 94 229 94s167 -31 228 -94c62 -62 93 -150 93 -264zM492 134l-85 85l74 74l75 -76c17 37 25 82 25 133
c0 83 -20 146 -60 189c-39 43 -89 65 -149 65s-110 -22 -150 -65c-39 -43 -59 -106 -59 -189s20 -146 59 -189c40 -43 90 -65 150 -65c47 0 87 13 120 38z" />
    <glyph glyph-name="R" unicode="R" horiz-adv-x="649" 
d="M546 507c0 -96 -49 -162 -136 -185l202 -322h-130l-197 314h-81v-314h-110v700h245c131 0 207 -73 207 -193zM204 418h138c56 0 92 29 92 89s-36 89 -92 89h-138v-178z" />
    <glyph glyph-name="S" unicode="S" horiz-adv-x="530" 
d="M454 590l-89 -59c-27 51 -62 77 -104 77c-44 0 -73 -33 -73 -76c0 -51 47 -86 106 -114c84 -37 195 -87 194 -213c0 -63 -21 -115 -62 -154s-93 -59 -157 -59c-120 0 -206 79 -231 195l90 57c25 -99 72 -148 141 -148c63 0 107 44 107 105c0 137 -298 107 -298 323
c0 53 18 96 53 131s79 53 130 53c85 0 149 -39 193 -118z" />
    <glyph glyph-name="T" unicode="T" horiz-adv-x="524" 
d="M207 596h-196v104h502v-104h-196v-596h-110v596z" />
    <glyph glyph-name="U" unicode="U" horiz-adv-x="654" 
d="M75 252v448h110v-453c0 -96 49 -151 142 -151s142 55 142 151v453h110v-448c0 -82 -24 -146 -71 -192c-47 -45 -107 -68 -181 -68s-135 23 -182 69s-70 110 -70 191z" />
    <glyph glyph-name="V" unicode="V" horiz-adv-x="598" 
d="M593 700l-239 -700h-110l-239 700h118l176 -546l176 546h118z" />
    <glyph glyph-name="W" unicode="W" horiz-adv-x="912" 
d="M645 156l128 544h116l-185 -700h-112l-136 444l-136 -444h-112l-185 700h116l128 -544l139 470h100z" />
    <glyph glyph-name="X" unicode="X" horiz-adv-x="580" 
d="M290 484l124 216h123l-185 -324l216 -376h-125l-153 267l-153 -267h-125l216 376l-185 324h123z" />
    <glyph glyph-name="Y" unicode="Y" horiz-adv-x="514" 
d="M202 300l-200 400h117l138 -291l138 291h117l-200 -400v-300h-110v300z" />
    <glyph glyph-name="Z" unicode="Z" horiz-adv-x="558" 
d="M357 596h-304v104h452v-54l-315 -542h328v-104h-480v54z" />
    <glyph glyph-name="bracketleft" unicode="[" horiz-adv-x="338" 
d="M302 -50h-208v800h208v-94h-108v-612h108v-94z" />
    <glyph glyph-name="backslash" unicode="\" horiz-adv-x="547" 
d="M431 -50l-436 800h103l436 -800h-103z" />
    <glyph glyph-name="bracketright" unicode="]" horiz-adv-x="338" 
d="M36 750h208v-800h-208v94h108v612h-108v94z" />
    <glyph glyph-name="asciicircum" unicode="^" horiz-adv-x="578" 
d="M54 413l191 287h88l191 -287h-103l-132 195l-132 -195h-103z" />
    <glyph glyph-name="underscore" unicode="_" horiz-adv-x="499" 
d="M472 -92h-445v92h445v-92z" />
    <glyph glyph-name="grave" unicode="`" horiz-adv-x="242" 
d="M16 708h141l68 -148h-80z" />
    <glyph glyph-name="a" unicode="a" horiz-adv-x="514" 
d="M44 145c0 103 87 165 218 165h87v22c0 60 -41 88 -98 88c-46 0 -77 -22 -94 -67l-95 20c21 85 94 139 190 139c134 0 201 -66 201 -199v-313h-88l-10 66c-35 -49 -87 -74 -156 -74c-89 0 -155 53 -155 153zM154 145c0 -36 22 -61 63 -61c35 0 66 11 92 33
c27 23 40 54 40 95v11h-91c-64 0 -104 -30 -104 -78z" />
    <glyph glyph-name="b" unicode="b" horiz-adv-x="601" 
d="M552 252c0 -164 -78 -260 -225 -260c-61 0 -118 33 -137 66v-58h-104v708h104v-260c12 17 31 31 58 44s52 20 77 20c148 0 227 -100 227 -260zM406 129c24 31 36 72 36 123s-12 92 -36 122c-24 31 -55 46 -93 46s-69 -15 -93 -46c-24 -30 -36 -71 -36 -122
s12 -92 36 -123c24 -30 55 -45 93 -45s69 15 93 45z" />
    <glyph glyph-name="c" unicode="c" horiz-adv-x="542" 
d="M411 171l93 -40c-41 -93 -113 -139 -218 -139c-76 0 -135 25 -176 74c-41 50 -61 112 -61 186s20 136 61 185c41 50 100 75 176 75c105 0 177 -46 218 -139l-93 -40c-26 58 -68 87 -125 87c-85 0 -127 -67 -127 -168s42 -168 127 -168c57 0 99 29 125 87z" />
    <glyph glyph-name="d" unicode="d" horiz-adv-x="601" 
d="M49 252c0 160 79 260 227 260c25 0 50 -7 77 -20s46 -27 58 -44v260h104v-708h-104v58c-19 -33 -76 -66 -137 -66c-147 0 -225 96 -225 260zM195 374c-24 -30 -36 -71 -36 -122s12 -92 36 -123c24 -30 55 -45 93 -45s69 15 93 45c24 31 36 72 36 123s-12 92 -36 122
c-24 31 -55 46 -93 46s-69 -15 -93 -46z" />
    <glyph glyph-name="e" unicode="e" horiz-adv-x="559" 
d="M284 420c-67 0 -111 -45 -123 -110h245c-9 63 -51 110 -122 110zM516 268v-45h-357c0 -79 46 -139 125 -139c56 0 107 32 132 85l89 -35c-51 -99 -110 -142 -221 -142c-166 0 -235 140 -235 260s69 260 235 260c161 0 232 -131 232 -244z" />
    <glyph glyph-name="f" unicode="f" horiz-adv-x="362" 
d="M103 412h-65v92h65v26c0 119 64 178 169 178c33 0 60 -6 83 -18l-21 -88c-18 9 -38 14 -59 14c-45 0 -68 -26 -68 -79v-33h111v-92h-111v-412h-104v412z" />
    <glyph glyph-name="g" unicode="g" horiz-adv-x="511" 
d="M87 343c0 51 17 92 51 123s77 46 129 46c33 0 64 -7 92 -22l93 50l42 -75l-68 -38c15 -25 22 -53 22 -84c0 -52 -17 -93 -51 -124c-34 -30 -77 -45 -130 -45c-29 0 -56 5 -81 15c-18 -10 -27 -25 -27 -44c0 -26 17 -39 52 -39h111c101 0 167 -51 167 -144
c0 -59 -21 -102 -64 -131c-42 -29 -94 -43 -157 -43c-132 0 -222 59 -222 166c0 41 14 75 43 102c-19 19 -29 46 -29 79c0 45 20 79 61 102c-23 28 -34 63 -34 106zM300 18h-81c-18 0 -35 1 -51 3c-15 -15 -22 -36 -22 -61c0 -51 46 -82 122 -82c72 0 115 28 115 76
c0 43 -28 64 -83 64zM267 261c48 0 80 33 80 82s-32 82 -80 82c-47 0 -79 -33 -79 -82s32 -82 79 -82z" />
    <glyph glyph-name="h" unicode="h" horiz-adv-x="588" 
d="M86 0v708h104v-290c43 63 100 94 170 94c95 0 149 -52 149 -157v-355h-104v328c0 72 -27 92 -79 92c-32 0 -63 -19 -92 -57s-44 -88 -44 -150v-213h-104z" />
    <glyph glyph-name="i" unicode="i" horiz-adv-x="266" 
d="M81 595c-27 28 -27 74 1 102c28 29 74 29 102 0c28 -28 28 -74 0 -102c-27 -27 -75 -27 -103 0zM81 0v504h104v-504h-104z" />
    <glyph glyph-name="j" unicode="j" horiz-adv-x="266" 
d="M81 595c-27 28 -27 74 1 102c28 29 74 29 102 0c28 -28 28 -74 0 -102c-27 -27 -75 -27 -103 0zM1 -212l-26 91c71 21 106 57 106 134v491h104v-481c0 -135 -63 -207 -184 -235z" />
    <glyph glyph-name="k" unicode="k" horiz-adv-x="525" 
d="M86 0v708h104v-405l182 201h132l-211 -232l224 -272h-132l-195 241v-241h-104z" />
    <glyph glyph-name="l" unicode="l" horiz-adv-x="271" 
d="M84 0v708h104v-708h-104z" />
    <glyph glyph-name="m" unicode="m" horiz-adv-x="861" 
d="M86 0v504h104v-86c41 63 91 94 152 94c68 0 124 -41 139 -104c35 67 92 104 157 104c91 0 144 -60 144 -151v-361h-104v338c0 53 -29 82 -74 82c-65 0 -118 -85 -118 -218v-202h-104v338c0 53 -29 82 -74 82c-67 0 -118 -85 -118 -229v-191h-104z" />
    <glyph glyph-name="n" unicode="n" horiz-adv-x="580" 
d="M86 0v504h104v-86c36 60 96 94 163 94c89 0 148 -55 148 -151v-361h-104v328c0 61 -26 92 -78 92c-35 0 -65 -20 -91 -59c-25 -39 -38 -91 -38 -157v-204h-104z" />
    <glyph glyph-name="o" unicode="o" horiz-adv-x="594" 
d="M116 67c-45 50 -67 112 -67 185s22 135 67 185s106 75 181 75s135 -25 180 -75s68 -112 68 -185s-23 -135 -68 -185s-105 -75 -180 -75s-136 25 -181 75zM195 370c-24 -33 -36 -72 -36 -118s12 -86 36 -119c25 -33 59 -49 102 -49s77 16 101 49c25 33 37 73 37 119
s-12 85 -37 118c-24 33 -58 50 -101 50s-77 -17 -102 -50z" />
    <glyph glyph-name="p" unicode="p" horiz-adv-x="601" 
d="M552 252c0 -160 -79 -260 -227 -260c-59 0 -110 28 -135 64v-260h-104v708h104v-58c19 33 76 66 137 66c147 0 225 -96 225 -260zM406 129c24 31 36 72 36 123s-12 92 -36 122c-24 31 -55 46 -93 46s-69 -15 -93 -46c-24 -30 -36 -71 -36 -122s12 -92 36 -123
c24 -30 55 -45 93 -45s69 15 93 45z" />
    <glyph glyph-name="q" unicode="q" horiz-adv-x="601" 
d="M49 252c0 164 78 260 225 260c61 0 118 -33 137 -66v58h104v-708h-104v260c-12 -17 -31 -32 -58 -45s-52 -19 -77 -19c-148 0 -227 100 -227 260zM195 374c-24 -30 -36 -71 -36 -122s12 -92 36 -123c24 -30 55 -45 93 -45s69 15 93 45c24 31 36 72 36 123s-12 92 -36 122
c-24 31 -55 46 -93 46s-69 -15 -93 -46z" />
    <glyph glyph-name="r" unicode="r" horiz-adv-x="417" 
d="M190 187v-187h-104v504h104v-84c33 59 93 92 149 92c23 0 44 -4 64 -12l-18 -95c-16 10 -36 15 -59 15c-37 0 -69 -20 -96 -61c-27 -40 -40 -97 -40 -172z" />
    <glyph glyph-name="s" unicode="s" horiz-adv-x="450" 
d="M234 512c61 0 117 -31 149 -80l-66 -58c-24 31 -53 46 -88 46c-28 0 -50 -18 -50 -50c0 -11 4 -22 13 -31c17 -17 34 -25 77 -41c35 -13 50 -18 78 -37c40 -24 59 -54 63 -109c0 -45 -16 -83 -48 -114s-74 -46 -127 -46c-96 0 -164 62 -195 135l88 48
c27 -61 64 -91 111 -91c45 0 68 22 68 66c0 17 -7 29 -26 40c-9 6 -18 11 -26 14c-15 7 -52 20 -68 27c-72 30 -108 76 -108 138c0 40 15 74 44 101c29 28 66 42 111 42z" />
    <glyph glyph-name="t" unicode="t" horiz-adv-x="385" 
d="M105 412h-84v92h84v139l104 65v-204h131v-92h-131v-246c0 -55 22 -82 67 -82c17 0 33 5 48 14l27 -88c-25 -12 -52 -18 -81 -18c-100 0 -165 61 -165 180v240z" />
    <glyph glyph-name="u" unicode="u" horiz-adv-x="580" 
d="M494 504v-504h-104v86c-36 -60 -96 -94 -163 -94c-89 0 -148 55 -148 151v361h104v-328c0 -61 26 -92 78 -92c35 0 65 19 90 58c26 39 39 92 39 158v204h104z" />
    <glyph glyph-name="v" unicode="v" horiz-adv-x="456" 
d="M179 0l-167 504h106l110 -362l110 362h106l-167 -504h-98z" />
    <glyph glyph-name="w" unicode="w" horiz-adv-x="754" 
d="M516 136l97 368h110l-160 -504h-95l-91 356l-91 -356h-95l-160 504h110l97 -368l89 368h100z" />
    <glyph glyph-name="x" unicode="x" horiz-adv-x="470" 
d="M235 356l92 148h112l-148 -238l166 -266h-112l-110 176l-110 -176h-112l166 266l-148 238h112z" />
    <glyph glyph-name="y" unicode="y" horiz-adv-x="469" 
d="M185 25l-177 479h110l119 -339l115 339h110l-255 -708h-104z" />
    <glyph glyph-name="z" unicode="z" horiz-adv-x="461" 
d="M273 412h-212v92h347v-42l-227 -370h238v-92h-373v42z" />
    <glyph glyph-name="braceleft" unicode="{" horiz-adv-x="332" 
d="M142 46v181c0 60 -16 76 -83 76v94c67 0 83 16 83 76v181c0 56 40 96 99 96h66v-94h-25c-29 0 -40 -11 -40 -42v-165c0 -58 -24 -91 -73 -99c49 -8 73 -41 73 -99v-165c0 -31 11 -42 40 -42h25v-94h-66c-59 0 -99 40 -99 96z" />
    <glyph glyph-name="bar" unicode="|" horiz-adv-x="288" 
d="M94 -50v800h100v-800h-100z" />
    <glyph glyph-name="braceright" unicode="}" horiz-adv-x="332" 
d="M190 227v-181c0 -56 -40 -96 -99 -96h-66v94h25c29 0 40 11 40 42v165c0 58 24 91 73 99c-49 8 -73 41 -73 99v165c0 31 -11 42 -40 42h-25v94h66c59 0 99 -40 99 -96v-181c0 -60 16 -76 83 -76v-94c-67 0 -83 -16 -83 -76z" />
    <glyph glyph-name="asciitilde" unicode="~" horiz-adv-x="642" 
d="M133 257l-56 60c25 56 83 101 142 101c30 0 65 -9 105 -26s71 -26 93 -26c35 0 66 16 92 47l56 -60c-25 -56 -83 -101 -142 -101c-29 0 -64 9 -105 26c-40 17 -71 26 -93 26c-35 0 -66 -16 -92 -47z" />
    <glyph glyph-name="uni00A0" unicode="&#xa0;" horiz-adv-x="258" 
 />
    <glyph glyph-name="exclamdown" unicode="&#xa1;" horiz-adv-x="351" 
d="M217 275l27 -479h-142l27 479h88zM118 371c-28 29 -28 79 0 107c29 29 81 29 109 0c29 -28 29 -78 0 -107c-28 -28 -80 -28 -109 0z" />
    <glyph glyph-name="cent" unicode="&#xa2;" horiz-adv-x="569" 
d="M419 270l93 -40c-35 -78 -92 -123 -170 -135v-144h-100v145c-60 11 -106 40 -138 87c-31 47 -47 103 -47 168s16 120 47 167c32 47 78 77 138 88v145h100v-144c78 -12 135 -57 170 -135l-93 -40c-26 58 -68 87 -125 87c-85 0 -127 -67 -127 -168s42 -168 127 -168
c57 0 99 29 125 87z" />
    <glyph glyph-name="sterling" unicode="&#xa3;" horiz-adv-x="547" 
d="M142 314h-80v100h48c-9 33 -14 63 -14 90c0 61 18 110 55 147c37 38 85 57 145 57c97 0 170 -50 201 -138l-87 -41c-23 53 -61 79 -114 79c-56 0 -96 -34 -96 -105c0 -34 3 -64 10 -89h163v-100h-133c3 -17 5 -33 5 -50c0 -65 -27 -122 -82 -169c33 21 63 32 90 32
c19 0 40 -6 61 -18c22 -11 40 -17 54 -17c31 0 57 19 80 57l79 -44c-43 -79 -88 -113 -155 -113c-29 0 -58 6 -88 17c-30 12 -52 18 -66 18c-40 0 -78 -12 -115 -35l-62 69c75 71 110 120 110 187c0 24 -3 46 -9 66z" />
    <glyph glyph-name="currency" unicode="&#xa4;" horiz-adv-x="562" 
d="M451 199l88 -67l-83 -83l-67 87c-31 -21 -67 -31 -108 -31s-77 10 -108 31l-67 -87l-83 83l88 67c-40 65 -40 151 0 216l-88 67l83 83l67 -87c31 21 67 31 108 31s77 -10 108 -31l67 87l83 -83l-88 -67c40 -65 40 -151 0 -216zM351 231c18 19 27 45 27 76s-9 57 -27 76
c-17 19 -41 29 -70 29s-53 -10 -71 -29c-17 -19 -26 -45 -26 -76s9 -57 26 -76c18 -19 42 -29 71 -29s53 10 70 29z" />
    <glyph glyph-name="yen" unicode="&#xa5;" horiz-adv-x="518" 
d="M159 392l-149 308h117l132 -290l132 290h117l-149 -308h105v-92h-150v-67h150v-92h-150v-141h-110v141h-150v92h150v67h-150v92h105z" />
    <glyph glyph-name="brokenbar" unicode="&#xa6;" horiz-adv-x="288" 
d="M94 -50v349h100v-349h-100zM194 750v-349h-100v349h100z" />
    <glyph glyph-name="section" unicode="&#xa7;" horiz-adv-x="533" 
d="M482 222c0 -59 -21 -104 -64 -136c21 -29 32 -65 32 -107c0 -58 -17 -104 -52 -139s-76 -52 -125 -52c-104 0 -169 50 -195 149l95 32c18 -54 51 -81 100 -81c43 0 77 31 77 87c0 32 -9 53 -36 72c-13 10 -25 18 -37 24c-11 6 -29 14 -53 25c-23 11 -43 21 -59 30
c-68 37 -102 86 -102 148c0 59 21 104 64 136c-21 29 -32 65 -32 107c0 58 17 104 52 139s76 52 125 52c104 0 169 -50 195 -149l-95 -32c-18 54 -51 81 -100 81c-43 0 -77 -31 -77 -87c0 -32 10 -53 35 -73c13 -9 26 -17 37 -23l53 -26c24 -11 44 -20 60 -29
c68 -37 102 -86 102 -148zM389 213c0 33 -31 63 -62 78c-15 8 -37 18 -66 31s-50 23 -65 31c-27 -17 -40 -41 -40 -70c0 -28 15 -49 43 -68c15 -9 29 -16 43 -23c29 -13 79 -34 107 -49c27 17 40 41 40 70z" />
    <glyph glyph-name="dieresis" unicode="&#xa8;" horiz-adv-x="347" 
d="M36 606c-24 24 -24 66 0 90s66 24 90 0s24 -66 0 -90s-66 -24 -90 0zM222 606c-24 24 -24 66 0 90s66 24 90 0s24 -66 0 -90s-66 -24 -90 0z" />
    <glyph glyph-name="copyright" unicode="&#xa9;" horiz-adv-x="896" 
d="M174 72c-73 75 -109 167 -109 278s36 203 109 278s165 112 274 112s200 -37 273 -112s110 -167 110 -278s-37 -203 -110 -278s-164 -112 -273 -112s-201 37 -274 112zM241 563c-53 -57 -80 -128 -80 -213s27 -156 80 -213s122 -85 207 -85s154 28 207 85s80 128 80 213
s-27 156 -80 213s-122 85 -207 85s-154 -28 -207 -85zM541 288l85 -19c-13 -84 -87 -135 -178 -135c-55 0 -102 19 -141 56c-39 38 -58 91 -58 160s19 122 58 159c39 38 86 57 141 57c91 0 165 -51 178 -135l-85 -19c-15 47 -46 70 -93 70c-63 0 -105 -48 -105 -132
s42 -132 105 -132c47 0 78 23 93 70z" />
    <glyph glyph-name="ordfeminine" unicode="&#xaa;" horiz-adv-x="443" 
d="M60 416c0 81 68 130 171 130h68v17c0 48 -32 69 -79 69c-39 0 -64 -17 -75 -52l-69 15c15 68 68 109 144 109c107 0 161 -52 161 -156v-248h-68l-9 54c-28 -39 -69 -58 -122 -58c-71 0 -122 41 -122 120zM146 416c0 -32 17 -48 50 -48c55 0 103 37 103 101v11h-71
c-49 0 -82 -25 -82 -64z" />
    <glyph glyph-name="guillemotleft" unicode="&#xab;" horiz-adv-x="662" 
d="M339 68l-293 206v72l293 206v-107l-189 -135l189 -135v-107zM609 68l-293 206v72l293 206v-107l-189 -135l189 -135v-107z" />
    <glyph glyph-name="logicalnot" unicode="&#xac;" horiz-adv-x="588" 
d="M410 305h-345v92h449v-255h-104v163z" />
    <glyph glyph-name="uni00AD" unicode="&#xad;" horiz-adv-x="489" 
d="M421 271h-353v92h353v-92z" />
    <glyph glyph-name="registered" unicode="&#xae;" horiz-adv-x="896" 
d="M174 72c-73 75 -109 167 -109 278s36 203 109 278s165 112 274 112s200 -37 273 -112s110 -167 110 -278s-37 -203 -110 -278s-164 -112 -273 -112s-201 37 -274 112zM241 563c-53 -57 -80 -128 -80 -213s27 -156 80 -213s122 -85 207 -85s154 28 207 85s80 128 80 213
s-27 156 -80 213s-122 85 -207 85s-154 -28 -207 -85zM634 137h-98l-122 182h-25v-182h-86v426h158c89 0 138 -43 138 -122c0 -65 -36 -106 -92 -118zM460 483h-71v-84h71c36 0 54 14 54 42s-18 42 -54 42z" />
    <glyph glyph-name="overscore" unicode="&#xaf;" horiz-adv-x="279" 
d="M268 626h-257v92h257v-92z" />
    <glyph glyph-name="degree" unicode="&#xb0;" horiz-adv-x="354" 
d="M95 513c-21 21 -32 48 -32 80s11 58 32 79s49 32 82 32s61 -11 82 -32s32 -47 32 -79s-11 -59 -32 -80s-49 -31 -82 -31s-61 10 -82 31zM147 623c-15 -15 -15 -45 0 -61c15 -15 45 -15 60 0c15 16 15 46 0 61c-15 16 -45 16 -60 0z" />
    <glyph glyph-name="plusminus" unicode="&#xb1;" 
d="M237 445v176h92v-176h177v-92h-177v-177h-92v177h-176v92h176zM506 0h-445v92h445v-92z" />
    <glyph glyph-name="uni00B2" unicode="&#xb2;" horiz-adv-x="381" 
d="M322 300h-264v30l151 186c17 21 25 43 25 67c0 31 -18 49 -45 49c-33 0 -51 -20 -54 -60l-73 20c7 65 59 112 127 112c76 0 125 -46 125 -119c0 -36 -13 -70 -39 -101l-92 -112h139v-72z" />
    <glyph glyph-name="uni00B3" unicode="&#xb3;" horiz-adv-x="388" 
d="M58 417l70 10c5 -37 32 -59 65 -59c37 0 56 22 56 67c0 39 -21 61 -56 61c-14 0 -27 -4 -38 -12l-36 47l73 97h-117v72h230v-29l-91 -120c68 0 115 -51 115 -119c0 -83 -48 -136 -136 -136c-77 0 -131 50 -135 121z" />
    <glyph glyph-name="acute" unicode="&#xb4;" horiz-adv-x="242" 
d="M97 560h-80l68 148h141z" />
    <glyph glyph-name="mu" unicode="&#xb5;" horiz-adv-x="580" 
d="M494 504v-504h-104v86c-39 -63 -93 -94 -163 -94c-15 0 -29 2 -44 5v-201h-104v708h104v-328c0 -61 26 -92 78 -92c35 0 65 19 90 58c26 39 39 92 39 158v204h104z" />
    <glyph glyph-name="mu" unicode="&#x3bc;" horiz-adv-x="580" 
d="M494 504v-504h-104v86c-39 -63 -93 -94 -163 -94c-15 0 -29 2 -44 5v-201h-104v708h104v-328c0 -61 26 -92 78 -92c35 0 65 19 90 58c26 39 39 92 39 158v204h104z" />
    <glyph glyph-name="paragraph" unicode="&#xb6;" horiz-adv-x="715" 
d="M267 700h385v-92h-62v-812h-104v812h-115v-812h-104v484c-58 0 -108 20 -149 61s-61 91 -61 149s20 107 61 148s91 62 149 62z" />
    <glyph glyph-name="middot" unicode="&#xb7;" horiz-adv-x="318" 
d="M106 421c29 29 77 29 105 0c29 -28 29 -76 0 -105c-28 -28 -76 -28 -105 0c-28 29 -28 77 0 105z" />
    <glyph glyph-name="cedilla" unicode="&#xb8;" horiz-adv-x="221" 
d="M132 -60h81l-84 -191l-121 56z" />
    <glyph glyph-name="uni00B9" unicode="&#xb9;" horiz-adv-x="298" 
d="M54 637l131 63h30v-400h-77v292l-84 -40v85z" />
    <glyph glyph-name="ordmasculine" unicode="&#xba;" horiz-adv-x="517" 
d="M117 355c-35 39 -53 88 -53 145s18 106 53 145s83 59 142 59s106 -20 141 -59s53 -88 53 -145s-18 -106 -53 -145s-82 -59 -141 -59s-107 20 -142 59zM179 593c-19 -26 -29 -57 -29 -93s10 -67 29 -93s46 -39 80 -39s60 13 79 39s29 57 29 93s-10 67 -29 93
s-45 39 -79 39s-61 -13 -80 -39z" />
    <glyph glyph-name="guillemotright" unicode="&#xbb;" horiz-adv-x="662" 
d="M323 552l293 -206v-72l-293 -206v107l189 135l-189 135v107zM53 552l293 -206v-72l-293 -206v107l189 135l-189 135v107z" />
    <glyph glyph-name="onequarter" unicode="&#xbc;" horiz-adv-x="821" 
d="M74 637l131 63h30v-400h-77v292l-84 -40v85zM124 13l539 720l58 -45l-539 -720zM694 0h-77v71h-167v35l160 294h84v-257h44v-72h-44v-71zM617 286l-74 -143h74v143z" />
    <glyph glyph-name="onehalf" unicode="&#xbd;" horiz-adv-x="901" 
d="M74 637l131 63h30v-400h-77v292l-84 -40v85zM128 13l539 720l58 -45l-539 -720zM818 0h-264v30l151 186c17 21 25 43 25 67c0 31 -18 49 -45 49c-33 0 -51 -20 -54 -60l-73 20c7 65 59 112 127 112c76 0 125 -46 125 -119c0 -36 -13 -70 -39 -101l-92 -112h139v-72z" />
    <glyph glyph-name="threequarters" unicode="&#xbe;" horiz-adv-x="815" 
d="M152 13l539 720l58 -45l-539 -720zM58 417l70 10c5 -37 32 -59 65 -59c37 0 56 22 56 67c0 39 -21 61 -56 61c-14 0 -27 -4 -38 -12l-36 47l73 97h-117v72h230v-29l-91 -120c68 0 115 -51 115 -119c0 -83 -48 -136 -136 -136c-77 0 -131 50 -135 121zM712 0h-77v71h-167
v35l160 294h84v-257h44v-72h-44v-71zM635 286l-74 -143h74v143z" />
    <glyph glyph-name="questiondown" unicode="&#xbf;" horiz-adv-x="456" 
d="M168 153l-81 31c21 70 68 105 139 105c81 0 136 -48 136 -124c0 -56 -28 -97 -85 -123l-83 -38c-36 -17 -49 -35 -49 -70c0 -36 32 -61 73 -61c50 0 83 27 98 82l95 -16c-16 -89 -86 -151 -187 -151c-104 0 -179 58 -179 154c0 54 24 93 71 116l113 55c28 13 42 32 42 56
c0 25 -16 41 -43 41c-31 0 -47 -20 -60 -57zM280 478c29 -28 29 -78 0 -107c-28 -28 -80 -28 -109 0c-28 29 -28 79 0 107c29 29 81 29 109 0z" />
    <glyph glyph-name="Agrave" unicode="&#xc0;" horiz-adv-x="608" 
d="M9 0l243 700h104l243 -700h-112l-58 174h-250l-58 -174h-112zM396 278l-92 283l-92 -283h184zM161 904h141l68 -148h-80z" />
    <glyph glyph-name="Aacute" unicode="&#xc1;" horiz-adv-x="608" 
d="M9 0l243 700h104l243 -700h-112l-58 174h-250l-58 -174h-112zM396 278l-92 283l-92 -283h184zM312 756h-80l68 148h141z" />
    <glyph glyph-name="Acircumflex" unicode="&#xc2;" horiz-adv-x="608" 
d="M9 0l243 700h104l243 -700h-112l-58 174h-250l-58 -174h-112zM396 278l-92 283l-92 -283h184zM227 762h-100l162 176h30l162 -176h-100l-77 80z" />
    <glyph glyph-name="Atilde" unicode="&#xc3;" horiz-adv-x="608" 
d="M9 0l243 700h104l243 -700h-112l-58 174h-250l-58 -174h-112zM396 278l-92 283l-92 -283h184zM177 773l-57 47c21 45 68 81 115 81c25 0 49 -7 72 -21c23 -13 43 -20 59 -20c22 0 44 13 66 40l57 -47c-21 -45 -68 -81 -115 -81c-25 0 -50 7 -73 20c-23 14 -42 21 -58 21
c-22 0 -44 -13 -66 -40z" />
    <glyph glyph-name="Adieresis" unicode="&#xc4;" horiz-adv-x="608" 
d="M9 0l243 700h104l243 -700h-112l-58 174h-250l-58 -174h-112zM396 278l-92 283l-92 -283h184zM166 802c-24 24 -24 66 0 90s66 24 90 0s24 -66 0 -90s-66 -24 -90 0zM352 802c-24 24 -24 66 0 90s66 24 90 0s24 -66 0 -90s-66 -24 -90 0z" />
    <glyph glyph-name="Aring" unicode="&#xc5;" horiz-adv-x="608" 
d="M9 0l243 700h104l243 -700h-112l-58 174h-250l-58 -174h-112zM396 278l-92 283l-92 -283h184zM203 849c0 57 44 102 101 102c59 0 101 -45 101 -102c0 -56 -42 -98 -101 -98c-57 0 -101 43 -101 98zM268 850c0 -48 72 -48 72 0c4 51 -76 51 -72 0z" />
    <glyph glyph-name="AE" unicode="&#xc6;" horiz-adv-x="848" 
d="M10 0l302 700h477v-104h-305v-172h246v-104h-246v-216h315v-104h-425v174h-179l-73 -174h-112zM374 561h-17l-118 -283h135v283z" />
    <glyph glyph-name="Ccedilla" unicode="&#xc7;" horiz-adv-x="695" 
d="M658 496l-104 -26c-36 92 -87 134 -179 134c-124 0 -212 -90 -212 -254s88 -254 212 -254c92 0 143 42 179 134l104 -26c-36 -135 -136 -212 -283 -212c-90 0 -167 31 -230 94s-94 151 -94 264s31 200 94 263s140 95 230 95c147 0 247 -77 283 -212zM380 -60h81l-84 -191
l-121 56z" />
    <glyph glyph-name="Egrave" unicode="&#xc8;" horiz-adv-x="568" 
d="M94 0v700h415v-104h-305v-172h246v-104h-246v-216h315v-104h-425zM164 904h141l68 -148h-80z" />
    <glyph glyph-name="Eacute" unicode="&#xc9;" horiz-adv-x="568" 
d="M94 0v700h415v-104h-305v-172h246v-104h-246v-216h315v-104h-425zM307 756h-80l68 148h141z" />
    <glyph glyph-name="Ecircumflex" unicode="&#xca;" horiz-adv-x="568" 
d="M94 0v700h415v-104h-305v-172h246v-104h-246v-216h315v-104h-425zM227 762h-100l162 176h30l162 -176h-100l-77 80z" />
    <glyph glyph-name="Edieresis" unicode="&#xcb;" horiz-adv-x="568" 
d="M94 0v700h415v-104h-305v-172h246v-104h-246v-216h315v-104h-425zM167 802c-24 24 -24 66 0 90s66 24 90 0s24 -66 0 -90s-66 -24 -90 0zM353 802c-24 24 -24 66 0 90s66 24 90 0s24 -66 0 -90s-66 -24 -90 0z" />
    <glyph glyph-name="Igrave" unicode="&#xcc;" horiz-adv-x="298" 
d="M204 0h-110v700h110v-700zM20 904h141l68 -148h-80z" />
    <glyph glyph-name="Iacute" unicode="&#xcd;" horiz-adv-x="298" 
d="M204 0h-110v700h110v-700zM150 756h-80l68 148h141z" />
    <glyph glyph-name="Icircumflex" unicode="&#xce;" horiz-adv-x="298" 
d="M204 0h-110v700h110v-700zM78 762h-100l162 176h30l162 -176h-100l-77 80z" />
    <glyph glyph-name="Idieresis" unicode="&#xcf;" horiz-adv-x="298" 
d="M204 0h-110v700h110v-700zM11 802c-24 24 -24 66 0 90s66 24 90 0s24 -66 0 -90s-66 -24 -90 0zM197 802c-24 24 -24 66 0 90s66 24 90 0s24 -66 0 -90s-66 -24 -90 0z" />
    <glyph glyph-name="Eth" unicode="&#xd0;" horiz-adv-x="689" 
d="M110 304h-82v92h82v304h206c90 0 166 -30 228 -91c63 -61 94 -147 94 -259s-31 -198 -94 -259c-62 -61 -138 -91 -228 -91h-206v304zM284 596h-64v-200h82v-92h-82v-200h64c123 0 242 55 242 246s-119 246 -242 246z" />
    <glyph glyph-name="Ntilde" unicode="&#xd1;" horiz-adv-x="703" 
d="M499 196v504h110v-700h-118l-287 502v-502h-110v700h118zM224 773l-57 47c21 45 68 81 115 81c25 0 49 -7 72 -21c23 -13 43 -20 59 -20c22 0 44 13 66 40l57 -47c-21 -45 -68 -81 -115 -81c-25 0 -50 7 -73 20c-23 14 -42 21 -58 21c-22 0 -44 -13 -66 -40z" />
    <glyph glyph-name="Ograve" unicode="&#xd2;" horiz-adv-x="744" 
d="M143 614c62 63 138 94 229 94s167 -31 228 -94c62 -62 93 -150 93 -264s-31 -202 -93 -265c-61 -62 -137 -93 -228 -93s-167 31 -229 93c-61 63 -92 151 -92 265s31 202 92 264zM521 539c-39 43 -89 65 -149 65s-110 -22 -150 -65c-39 -43 -59 -106 -59 -189
s20 -146 59 -189c40 -43 90 -65 150 -65s110 22 149 65c40 43 60 106 60 189s-20 146 -60 189zM241 904h141l68 -148h-80z" />
    <glyph glyph-name="Oacute" unicode="&#xd3;" horiz-adv-x="744" 
d="M143 614c62 63 138 94 229 94s167 -31 228 -94c62 -62 93 -150 93 -264s-31 -202 -93 -265c-61 -62 -137 -93 -228 -93s-167 31 -229 93c-61 63 -92 151 -92 265s31 202 92 264zM521 539c-39 43 -89 65 -149 65s-110 -22 -150 -65c-39 -43 -59 -106 -59 -189
s20 -146 59 -189c40 -43 90 -65 150 -65s110 22 149 65c40 43 60 106 60 189s-20 146 -60 189zM381 756h-80l68 148h141z" />
    <glyph glyph-name="Ocircumflex" unicode="&#xd4;" horiz-adv-x="744" 
d="M143 614c62 63 138 94 229 94s167 -31 228 -94c62 -62 93 -150 93 -264s-31 -202 -93 -265c-61 -62 -137 -93 -228 -93s-167 31 -229 93c-61 63 -92 151 -92 265s31 202 92 264zM521 539c-39 43 -89 65 -149 65s-110 -22 -150 -65c-39 -43 -59 -106 -59 -189
s20 -146 59 -189c40 -43 90 -65 150 -65s110 22 149 65c40 43 60 106 60 189s-20 146 -60 189zM295 762h-100l162 176h30l162 -176h-100l-77 80z" />
    <glyph glyph-name="Otilde" unicode="&#xd5;" horiz-adv-x="744" 
d="M143 614c62 63 138 94 229 94s167 -31 228 -94c62 -62 93 -150 93 -264s-31 -202 -93 -265c-61 -62 -137 -93 -228 -93s-167 31 -229 93c-61 63 -92 151 -92 265s31 202 92 264zM521 539c-39 43 -89 65 -149 65s-110 -22 -150 -65c-39 -43 -59 -106 -59 -189
s20 -146 59 -189c40 -43 90 -65 150 -65s110 22 149 65c40 43 60 106 60 189s-20 146 -60 189zM245 773l-57 47c21 45 68 81 115 81c25 0 49 -7 72 -21c23 -13 43 -20 59 -20c22 0 44 13 66 40l57 -47c-21 -45 -68 -81 -115 -81c-25 0 -50 7 -73 20c-23 14 -42 21 -58 21
c-22 0 -44 -13 -66 -40z" />
    <glyph glyph-name="Odieresis" unicode="&#xd6;" horiz-adv-x="744" 
d="M143 614c62 63 138 94 229 94s167 -31 228 -94c62 -62 93 -150 93 -264s-31 -202 -93 -265c-61 -62 -137 -93 -228 -93s-167 31 -229 93c-61 63 -92 151 -92 265s31 202 92 264zM521 539c-39 43 -89 65 -149 65s-110 -22 -150 -65c-39 -43 -59 -106 -59 -189
s20 -146 59 -189c40 -43 90 -65 150 -65s110 22 149 65c40 43 60 106 60 189s-20 146 -60 189zM235 802c-24 24 -24 66 0 90s66 24 90 0s24 -66 0 -90s-66 -24 -90 0zM421 802c-24 24 -24 66 0 90s66 24 90 0s24 -66 0 -90s-66 -24 -90 0z" />
    <glyph glyph-name="multiply" unicode="&#xd7;" horiz-adv-x="564" 
d="M347 316l153 -154l-65 -65l-153 153l-153 -153l-65 65l153 154l-153 154l65 65l153 -153l153 153l65 -65z" />
    <glyph glyph-name="Oslash" unicode="&#xd8;" horiz-adv-x="744" 
d="M551 656l61 79l72 -53l-67 -87c51 -63 76 -145 76 -245c0 -114 -31 -202 -93 -265c-61 -62 -137 -93 -228 -93c-66 0 -126 17 -179 52l-61 -79l-72 53l67 87c-51 63 -76 145 -76 245c0 114 31 202 92 264c62 63 138 94 229 94c66 0 126 -17 179 -52zM581 350
c0 61 -12 112 -35 153l-287 -374c33 -22 70 -33 113 -33c60 0 110 22 149 65c40 43 60 106 60 189zM372 604c-60 0 -110 -22 -150 -65c-39 -43 -59 -106 -59 -189c0 -59 12 -110 35 -153l287 374c-33 22 -70 33 -113 33z" />
    <glyph glyph-name="Ugrave" unicode="&#xd9;" horiz-adv-x="654" 
d="M75 252v448h110v-453c0 -96 49 -151 142 -151s142 55 142 151v453h110v-448c0 -82 -24 -146 -71 -192c-47 -45 -107 -68 -181 -68s-135 23 -182 69s-70 110 -70 191zM191 904h141l68 -148h-80z" />
    <glyph glyph-name="Uacute" unicode="&#xda;" horiz-adv-x="654" 
d="M75 252v448h110v-453c0 -96 49 -151 142 -151s142 55 142 151v453h110v-448c0 -82 -24 -146 -71 -192c-47 -45 -107 -68 -181 -68s-135 23 -182 69s-70 110 -70 191zM331 756h-80l68 148h141z" />
    <glyph glyph-name="Ucircumflex" unicode="&#xdb;" horiz-adv-x="654" 
d="M75 252v448h110v-453c0 -96 49 -151 142 -151s142 55 142 151v453h110v-448c0 -82 -24 -146 -71 -192c-47 -45 -107 -68 -181 -68s-135 23 -182 69s-70 110 -70 191zM250 762h-100l162 176h30l162 -176h-100l-77 80z" />
    <glyph glyph-name="Udieresis" unicode="&#xdc;" horiz-adv-x="654" 
d="M75 252v448h110v-453c0 -96 49 -151 142 -151s142 55 142 151v453h110v-448c0 -82 -24 -146 -71 -192c-47 -45 -107 -68 -181 -68s-135 23 -182 69s-70 110 -70 191zM190 802c-24 24 -24 66 0 90s66 24 90 0s24 -66 0 -90s-66 -24 -90 0zM376 802c-24 24 -24 66 0 90
s66 24 90 0s24 -66 0 -90s-66 -24 -90 0z" />
    <glyph glyph-name="Yacute" unicode="&#xdd;" horiz-adv-x="514" 
d="M202 300l-200 400h117l138 -291l138 291h117l-200 -400v-300h-110v300zM255 756h-80l68 148h141z" />
    <glyph glyph-name="Thorn" unicode="&#xde;" horiz-adv-x="589" 
d="M345 143h-141v-143h-110v700h110v-143h141c68 0 121 -19 159 -58c39 -39 58 -88 58 -149s-19 -110 -58 -149c-38 -39 -91 -58 -159 -58zM204 247h146c63 0 100 38 100 103s-37 103 -100 103h-146v-206z" />
    <glyph glyph-name="germandbls" unicode="&#xdf;" horiz-adv-x="560" 
d="M83 337h-48v92h48v85c0 63 18 111 55 144s84 50 141 50c125 0 189 -77 189 -182c0 -71 -40 -115 -85 -130c83 -25 136 -85 136 -184c0 -149 -82 -220 -219 -220c-26 0 -49 3 -69 8v92c27 -5 50 -8 69 -8c77 0 116 42 116 125c0 85 -42 128 -125 128h-39v92h27
c59 0 91 35 91 94c0 60 -36 93 -91 93c-56 0 -92 -38 -92 -109v-507h-104v337z" />
    <glyph glyph-name="agrave" unicode="&#xe0;" horiz-adv-x="514" 
d="M44 145c0 103 87 165 218 165h87v22c0 60 -41 88 -98 88c-46 0 -77 -22 -94 -67l-95 20c21 85 94 139 190 139c134 0 201 -66 201 -199v-313h-88l-10 66c-35 -49 -87 -74 -156 -74c-89 0 -155 53 -155 153zM154 145c0 -36 22 -61 63 -61c35 0 66 11 92 33
c27 23 40 54 40 95v11h-91c-64 0 -104 -30 -104 -78zM118 708h141l68 -148h-80z" />
    <glyph glyph-name="aacute" unicode="&#xe1;" horiz-adv-x="514" 
d="M44 145c0 103 87 165 218 165h87v22c0 60 -41 88 -98 88c-46 0 -77 -22 -94 -67l-95 20c21 85 94 139 190 139c134 0 201 -66 201 -199v-313h-88l-10 66c-35 -49 -87 -74 -156 -74c-89 0 -155 53 -155 153zM154 145c0 -36 22 -61 63 -61c35 0 66 11 92 33
c27 23 40 54 40 95v11h-91c-64 0 -104 -30 -104 -78zM255 560h-80l68 148h141z" />
    <glyph glyph-name="acircumflex" unicode="&#xe2;" horiz-adv-x="514" 
d="M44 145c0 103 87 165 218 165h87v22c0 60 -41 88 -98 88c-46 0 -77 -22 -94 -67l-95 20c21 85 94 139 190 139c134 0 201 -66 201 -199v-313h-88l-10 66c-35 -49 -87 -74 -156 -74c-89 0 -155 53 -155 153zM154 145c0 -36 22 -61 63 -61c35 0 66 11 92 33
c27 23 40 54 40 95v11h-91c-64 0 -104 -30 -104 -78zM180 566h-100l162 176h30l162 -176h-100l-77 80z" />
    <glyph glyph-name="atilde" unicode="&#xe3;" horiz-adv-x="514" 
d="M44 145c0 103 87 165 218 165h87v22c0 60 -41 88 -98 88c-46 0 -77 -22 -94 -67l-95 20c21 85 94 139 190 139c134 0 201 -66 201 -199v-313h-88l-10 66c-35 -49 -87 -74 -156 -74c-89 0 -155 53 -155 153zM154 145c0 -36 22 -61 63 -61c35 0 66 11 92 33
c27 23 40 54 40 95v11h-91c-64 0 -104 -30 -104 -78zM123 577l-57 47c21 45 68 81 115 81c25 0 49 -7 72 -21c23 -13 43 -20 59 -20c22 0 44 13 66 40l57 -47c-21 -45 -68 -81 -115 -81c-25 0 -50 7 -73 20c-23 14 -42 21 -58 21c-22 0 -44 -13 -66 -40z" />
    <glyph glyph-name="adieresis" unicode="&#xe4;" horiz-adv-x="514" 
d="M44 145c0 103 87 165 218 165h87v22c0 60 -41 88 -98 88c-46 0 -77 -22 -94 -67l-95 20c21 85 94 139 190 139c134 0 201 -66 201 -199v-313h-88l-10 66c-35 -49 -87 -74 -156 -74c-89 0 -155 53 -155 153zM154 145c0 -36 22 -61 63 -61c35 0 66 11 92 33
c27 23 40 54 40 95v11h-91c-64 0 -104 -30 -104 -78zM118 606c-24 24 -24 66 0 90s66 24 90 0s24 -66 0 -90s-66 -24 -90 0zM304 606c-24 24 -24 66 0 90s66 24 90 0s24 -66 0 -90s-66 -24 -90 0z" />
    <glyph glyph-name="aring" unicode="&#xe5;" horiz-adv-x="514" 
d="M44 145c0 103 87 165 218 165h87v22c0 60 -41 88 -98 88c-46 0 -77 -22 -94 -67l-95 20c21 85 94 139 190 139c134 0 201 -66 201 -199v-313h-88l-10 66c-35 -49 -87 -74 -156 -74c-89 0 -155 53 -155 153zM154 145c0 -36 22 -61 63 -61c35 0 66 11 92 33
c27 23 40 54 40 95v11h-91c-64 0 -104 -30 -104 -78zM151 653c0 57 44 102 101 102c59 0 101 -45 101 -102c0 -56 -42 -98 -101 -98c-57 0 -101 43 -101 98zM216 654c0 -48 72 -48 72 0c4 51 -76 51 -72 0z" />
    <glyph glyph-name="ae" unicode="&#xe6;" horiz-adv-x="859" 
d="M816 268v-45h-357c0 -79 46 -139 125 -139c56 0 107 32 132 85l89 -35c-51 -99 -110 -142 -221 -142c-91 0 -157 38 -199 113c-37 -75 -99 -113 -186 -113c-89 0 -155 53 -155 153c0 103 87 165 218 165h87v22c0 61 -42 88 -101 88c-49 0 -81 -22 -96 -66l-88 19
c19 85 87 139 184 139c79 0 135 -23 169 -69c43 46 98 69 167 69c161 0 232 -131 232 -244zM154 145c0 -36 22 -61 63 -61c35 0 66 11 92 33c27 23 40 54 40 95v15h-91c-63 0 -104 -34 -104 -82zM584 420c-67 0 -111 -45 -123 -110h245c-9 63 -51 110 -122 110z" />
    <glyph glyph-name="ccedilla" unicode="&#xe7;" horiz-adv-x="542" 
d="M411 171l93 -40c-41 -93 -113 -139 -218 -139c-76 0 -135 25 -176 74c-41 50 -61 112 -61 186s20 136 61 185c41 50 100 75 176 75c105 0 177 -46 218 -139l-93 -40c-26 58 -68 87 -125 87c-85 0 -127 -67 -127 -168s42 -168 127 -168c57 0 99 29 125 87zM291 -60h81
l-84 -191l-121 56z" />
    <glyph glyph-name="egrave" unicode="&#xe8;" horiz-adv-x="559" 
d="M284 420c-67 0 -111 -45 -123 -110h245c-9 63 -51 110 -122 110zM516 268v-45h-357c0 -79 46 -139 125 -139c56 0 107 32 132 85l89 -35c-51 -99 -110 -142 -221 -142c-166 0 -235 140 -235 260s69 260 235 260c161 0 232 -131 232 -244zM140 708h141l68 -148h-80z" />
    <glyph glyph-name="eacute" unicode="&#xe9;" horiz-adv-x="559" 
d="M284 420c-67 0 -111 -45 -123 -110h245c-9 63 -51 110 -122 110zM516 268v-45h-357c0 -79 46 -139 125 -139c56 0 107 32 132 85l89 -35c-51 -99 -110 -142 -221 -142c-166 0 -235 140 -235 260s69 260 235 260c161 0 232 -131 232 -244zM286 560h-80l68 148h141z" />
    <glyph glyph-name="ecircumflex" unicode="&#xea;" horiz-adv-x="559" 
d="M284 420c-67 0 -111 -45 -123 -110h245c-9 63 -51 110 -122 110zM516 268v-45h-357c0 -79 46 -139 125 -139c56 0 107 32 132 85l89 -35c-51 -99 -110 -142 -221 -142c-166 0 -235 140 -235 260s69 260 235 260c161 0 232 -131 232 -244zM207 566h-100l162 176h30
l162 -176h-100l-77 80z" />
    <glyph glyph-name="edieresis" unicode="&#xeb;" horiz-adv-x="559" 
d="M284 420c-67 0 -111 -45 -123 -110h245c-9 63 -51 110 -122 110zM516 268v-45h-357c0 -79 46 -139 125 -139c56 0 107 32 132 85l89 -35c-51 -99 -110 -142 -221 -142c-166 0 -235 140 -235 260s69 260 235 260c161 0 232 -131 232 -244zM146 606c-24 24 -24 66 0 90
s66 24 90 0s24 -66 0 -90s-66 -24 -90 0zM332 606c-24 24 -24 66 0 90s66 24 90 0s24 -66 0 -90s-66 -24 -90 0z" />
    <glyph glyph-name="igrave" unicode="&#xec;" horiz-adv-x="266" 
d="M81 0v504h104v-504h-104zM-1 708h141l68 -148h-80z" />
    <glyph glyph-name="iacute" unicode="&#xed;" horiz-adv-x="266" 
d="M81 0v504h104v-504h-104zM139 560h-80l68 148h141z" />
    <glyph glyph-name="icircumflex" unicode="&#xee;" horiz-adv-x="266" 
d="M81 0v504h104v-504h-104zM57 566h-100l162 176h30l162 -176h-100l-77 80z" />
    <glyph glyph-name="idieresis" unicode="&#xef;" horiz-adv-x="266" 
d="M81 0v504h104v-504h-104zM-5 606c-24 24 -24 66 0 90s66 24 90 0s24 -66 0 -90s-66 -24 -90 0zM181 606c-24 24 -24 66 0 90s66 24 90 0s24 -66 0 -90s-66 -24 -90 0z" />
    <glyph glyph-name="eth" unicode="&#xf0;" horiz-adv-x="582" 
d="M292 590l-35 -52l-68 48l33 48c-19 11 -47 24 -82 40l51 76c36 -16 63 -30 82 -41l35 52l68 -48l-34 -49c127 -98 191 -235 191 -412c0 -74 -22 -136 -65 -186c-43 -49 -102 -74 -177 -74s-135 25 -178 74c-43 50 -64 112 -64 186s21 136 64 185c43 50 103 75 178 75
c38 0 69 -9 92 -27c-17 38 -48 73 -91 105zM193 371c-23 -33 -34 -72 -34 -119s11 -86 34 -119s55 -49 98 -49s75 16 98 49s34 72 34 119s-11 86 -34 119s-55 49 -98 49s-75 -16 -98 -49z" />
    <glyph glyph-name="ntilde" unicode="&#xf1;" horiz-adv-x="580" 
d="M86 0v504h104v-86c36 60 96 94 163 94c89 0 148 -55 148 -151v-361h-104v328c0 61 -26 92 -78 92c-35 0 -65 -20 -91 -59c-25 -39 -38 -91 -38 -157v-204h-104zM175 577l-57 47c21 45 68 81 115 81c25 0 49 -7 72 -21c23 -13 43 -20 59 -20c22 0 44 13 66 40l57 -47
c-21 -45 -68 -81 -115 -81c-25 0 -50 7 -73 20c-23 14 -42 21 -58 21c-22 0 -44 -13 -66 -40z" />
    <glyph glyph-name="ograve" unicode="&#xf2;" horiz-adv-x="594" 
d="M116 67c-45 50 -67 112 -67 185s22 135 67 185s106 75 181 75s135 -25 180 -75s68 -112 68 -185s-23 -135 -68 -185s-105 -75 -180 -75s-136 25 -181 75zM195 370c-24 -33 -36 -72 -36 -118s12 -86 36 -119c25 -33 59 -49 102 -49s77 16 101 49c25 33 37 73 37 119
s-12 85 -37 118c-24 33 -58 50 -101 50s-77 -17 -102 -50zM172 708h141l68 -148h-80z" />
    <glyph glyph-name="oacute" unicode="&#xf3;" horiz-adv-x="594" 
d="M116 67c-45 50 -67 112 -67 185s22 135 67 185s106 75 181 75s135 -25 180 -75s68 -112 68 -185s-23 -135 -68 -185s-105 -75 -180 -75s-136 25 -181 75zM195 370c-24 -33 -36 -72 -36 -118s12 -86 36 -119c25 -33 59 -49 102 -49s77 16 101 49c25 33 37 73 37 119
s-12 85 -37 118c-24 33 -58 50 -101 50s-77 -17 -102 -50zM300 560h-80l68 148h141z" />
    <glyph glyph-name="ocircumflex" unicode="&#xf4;" horiz-adv-x="594" 
d="M116 67c-45 50 -67 112 -67 185s22 135 67 185s106 75 181 75s135 -25 180 -75s68 -112 68 -185s-23 -135 -68 -185s-105 -75 -180 -75s-136 25 -181 75zM195 370c-24 -33 -36 -72 -36 -118s12 -86 36 -119c25 -33 59 -49 102 -49s77 16 101 49c25 33 37 73 37 119
s-12 85 -37 118c-24 33 -58 50 -101 50s-77 -17 -102 -50zM220 566h-100l162 176h30l162 -176h-100l-77 80z" />
    <glyph glyph-name="otilde" unicode="&#xf5;" horiz-adv-x="594" 
d="M116 67c-45 50 -67 112 -67 185s22 135 67 185s106 75 181 75s135 -25 180 -75s68 -112 68 -185s-23 -135 -68 -185s-105 -75 -180 -75s-136 25 -181 75zM195 370c-24 -33 -36 -72 -36 -118s12 -86 36 -119c25 -33 59 -49 102 -49s77 16 101 49c25 33 37 73 37 119
s-12 85 -37 118c-24 33 -58 50 -101 50s-77 -17 -102 -50zM169 577l-57 47c21 45 68 81 115 81c25 0 49 -7 72 -21c23 -13 43 -20 59 -20c22 0 44 13 66 40l57 -47c-21 -45 -68 -81 -115 -81c-25 0 -50 7 -73 20c-23 14 -42 21 -58 21c-22 0 -44 -13 -66 -40z" />
    <glyph glyph-name="odieresis" unicode="&#xf6;" horiz-adv-x="594" 
d="M116 67c-45 50 -67 112 -67 185s22 135 67 185s106 75 181 75s135 -25 180 -75s68 -112 68 -185s-23 -135 -68 -185s-105 -75 -180 -75s-136 25 -181 75zM195 370c-24 -33 -36 -72 -36 -118s12 -86 36 -119c25 -33 59 -49 102 -49s77 16 101 49c25 33 37 73 37 119
s-12 85 -37 118c-24 33 -58 50 -101 50s-77 -17 -102 -50zM159 606c-24 24 -24 66 0 90s66 24 90 0s24 -66 0 -90s-66 -24 -90 0zM345 606c-24 24 -24 66 0 90s66 24 90 0s24 -66 0 -90s-66 -24 -90 0z" />
    <glyph glyph-name="divide" unicode="&#xf7;" horiz-adv-x="535" 
d="M214 180c29 29 77 29 105 0c29 -28 29 -76 0 -105c-28 -28 -76 -28 -105 0c-28 29 -28 77 0 105zM214 552c29 29 77 29 105 0c29 -28 29 -76 0 -105c-28 -28 -76 -28 -105 0c-28 29 -28 77 0 105zM490 271h-445v92h445v-92z" />
    <glyph glyph-name="oslash" unicode="&#xf8;" horiz-adv-x="594" 
d="M174 22l-56 -72l-73 54l60 77c-37 48 -56 105 -56 171c0 73 22 135 67 185s106 75 181 75c45 0 86 -10 123 -30l56 72l73 -54l-60 -77c37 -48 56 -105 56 -171c0 -73 -23 -135 -68 -185s-105 -75 -180 -75c-45 0 -86 10 -123 30zM435 252c0 28 -5 55 -16 82l-184 -234
c19 -11 40 -16 62 -16c43 0 77 16 101 49c25 33 37 73 37 119zM159 252c0 -28 5 -55 16 -82l184 234c-19 11 -40 16 -62 16c-43 0 -77 -17 -102 -50c-24 -33 -36 -72 -36 -118z" />
    <glyph glyph-name="ugrave" unicode="&#xf9;" horiz-adv-x="580" 
d="M494 504v-504h-104v86c-36 -60 -96 -94 -163 -94c-89 0 -148 55 -148 151v361h104v-328c0 -61 26 -92 78 -92c35 0 65 19 90 58c26 39 39 92 39 158v204h104zM161 708h141l68 -148h-80z" />
    <glyph glyph-name="uacute" unicode="&#xfa;" horiz-adv-x="580" 
d="M494 504v-504h-104v86c-36 -60 -96 -94 -163 -94c-89 0 -148 55 -148 151v361h104v-328c0 -61 26 -92 78 -92c35 0 65 19 90 58c26 39 39 92 39 158v204h104zM282 560h-80l68 148h141z" />
    <glyph glyph-name="ucircumflex" unicode="&#xfb;" horiz-adv-x="580" 
d="M494 504v-504h-104v86c-36 -60 -96 -94 -163 -94c-89 0 -148 55 -148 151v361h104v-328c0 -61 26 -92 78 -92c35 0 65 19 90 58c26 39 39 92 39 158v204h104zM197 566h-100l162 176h30l162 -176h-100l-77 80z" />
    <glyph glyph-name="udieresis" unicode="&#xfc;" horiz-adv-x="580" 
d="M494 504v-504h-104v86c-36 -60 -96 -94 -163 -94c-89 0 -148 55 -148 151v361h104v-328c0 -61 26 -92 78 -92c35 0 65 19 90 58c26 39 39 92 39 158v204h104zM152 606c-24 24 -24 66 0 90s66 24 90 0s24 -66 0 -90s-66 -24 -90 0zM338 606c-24 24 -24 66 0 90s66 24 90 0
s24 -66 0 -90s-66 -24 -90 0z" />
    <glyph glyph-name="yacute" unicode="&#xfd;" horiz-adv-x="469" 
d="M185 25l-177 479h110l119 -339l115 339h110l-255 -708h-104zM240 560h-80l68 148h141z" />
    <glyph glyph-name="thorn" unicode="&#xfe;" horiz-adv-x="601" 
d="M552 252c0 -164 -78 -260 -225 -260c-61 0 -118 33 -137 66v-262h-104v912h104v-260c12 17 31 31 58 44s52 20 77 20c148 0 227 -100 227 -260zM406 129c24 31 36 72 36 123s-12 92 -36 122c-24 31 -55 46 -93 46s-69 -15 -93 -46c-24 -30 -36 -71 -36 -122
s12 -92 36 -123c24 -30 55 -45 93 -45s69 15 93 45z" />
    <glyph glyph-name="ydieresis" unicode="&#xff;" horiz-adv-x="469" 
d="M185 25l-177 479h110l119 -339l115 339h110l-255 -708h-104zM100 606c-24 24 -24 66 0 90s66 24 90 0s24 -66 0 -90s-66 -24 -90 0zM286 606c-24 24 -24 66 0 90s66 24 90 0s24 -66 0 -90s-66 -24 -90 0z" />
    <glyph glyph-name="dotlessi" unicode="&#x131;" horiz-adv-x="266" 
d="M81 0v504h104v-504h-104z" />
    <glyph glyph-name="Lslash" unicode="&#x141;" horiz-adv-x="534" 
d="M106 250l-62 -34l-45 81l107 60v343h110v-282l107 60l45 -82l-152 -85v-207h302v-104h-412v250z" />
    <glyph glyph-name="lslash" unicode="&#x142;" horiz-adv-x="355" 
d="M123 386v322h104v-265l60 33l43 -81l-103 -56v-339h-104v282l-60 -33l-43 81z" />
    <glyph glyph-name="OE" unicode="&#x152;" horiz-adv-x="1057" 
d="M583 631v69h415v-104h-305v-172h246v-104h-246v-216h315v-104h-425v69c-59 -51 -129 -77 -211 -77c-91 0 -167 31 -229 93c-61 63 -92 151 -92 265s31 202 92 264c62 63 138 94 229 94c82 0 152 -26 211 -77zM521 539c-39 43 -89 65 -149 65s-110 -22 -150 -65
c-39 -43 -59 -106 -59 -189s20 -146 59 -189c40 -43 90 -65 150 -65s110 22 149 65c40 43 60 106 60 189s-20 146 -60 189z" />
    <glyph glyph-name="oe" unicode="&#x153;" horiz-adv-x="945" 
d="M902 268v-45h-357c0 -79 46 -139 125 -139c56 0 107 32 132 85l89 -35c-51 -99 -110 -142 -221 -142c-79 0 -139 29 -182 88c-45 -59 -109 -88 -191 -88c-75 0 -136 25 -181 75s-67 112 -67 185s22 135 67 185s106 75 181 75c82 0 146 -29 191 -88c43 59 103 88 182 88
c161 0 232 -131 232 -244zM195 370c-24 -33 -36 -72 -36 -118s12 -86 36 -119c25 -33 59 -49 102 -49s77 16 101 49c25 33 37 73 37 119s-12 85 -37 118c-24 33 -58 50 -101 50s-77 -17 -102 -50zM670 420c-67 0 -111 -45 -123 -110h245c-9 63 -51 110 -122 110z" />
    <glyph glyph-name="Scaron" unicode="&#x160;" horiz-adv-x="530" 
d="M454 590l-89 -59c-27 51 -62 77 -104 77c-44 0 -73 -33 -73 -76c0 -51 47 -86 106 -114c84 -37 195 -87 194 -213c0 -63 -21 -115 -62 -154s-93 -59 -157 -59c-120 0 -206 79 -231 195l90 57c25 -99 72 -148 141 -148c63 0 107 44 107 105c0 137 -298 107 -298 323
c0 53 18 96 53 131s79 53 130 53c85 0 149 -39 193 -118zM277 762h-30l-162 176h100l77 -80l77 80h100z" />
    <glyph glyph-name="scaron" unicode="&#x161;" horiz-adv-x="453" 
d="M234 512c61 0 117 -31 149 -80l-66 -58c-24 31 -53 46 -88 46c-28 0 -50 -18 -50 -50c0 -11 4 -22 13 -31c17 -17 34 -25 77 -41c35 -13 50 -18 78 -37c40 -24 59 -54 63 -109c0 -45 -16 -83 -48 -114s-74 -46 -127 -46c-96 0 -164 62 -195 135l88 48
c27 -61 64 -91 111 -91c45 0 68 22 68 66c0 17 -7 29 -26 40c-9 6 -18 11 -26 14c-15 7 -52 20 -68 27c-72 30 -108 76 -108 138c0 40 15 74 44 101c29 28 66 42 111 42zM250 566h-30l-162 176h100l77 -80l77 80h100z" />
    <glyph glyph-name="Ydieresis" unicode="&#x178;" horiz-adv-x="514" 
d="M202 300l-200 400h117l138 -291l138 291h117l-200 -400v-300h-110v300zM120 802c-24 24 -24 66 0 90s66 24 90 0s24 -66 0 -90s-66 -24 -90 0zM306 802c-24 24 -24 66 0 90s66 24 90 0s24 -66 0 -90s-66 -24 -90 0z" />
    <glyph glyph-name="Zcaron" unicode="&#x17d;" horiz-adv-x="558" 
d="M357 596h-304v104h452v-54l-315 -542h328v-104h-480v54zM294 762h-30l-162 176h100l77 -80l77 80h100z" />
    <glyph glyph-name="zcaron" unicode="&#x17e;" horiz-adv-x="461" 
d="M273 412h-212v92h347v-42l-227 -370h238v-92h-373v42zM245 566h-30l-162 176h100l77 -80l77 80h100z" />
    <glyph glyph-name="florin" unicode="&#x192;" horiz-adv-x="478" 
d="M187 412h-85l18 92h85l5 26c23 119 91 178 203 178c36 0 63 -6 80 -18l-38 -88c-16 9 -35 14 -57 14c-46 0 -74 -26 -83 -79l-6 -33h111l-18 -92h-111l-88 -446c-23 -119 -91 -178 -203 -178c-36 0 -63 6 -80 18l38 88c16 -9 35 -14 57 -14c45 0 72 26 83 79z" />
    <glyph glyph-name="circumflex" unicode="&#x2c6;" horiz-adv-x="412" 
d="M129 566h-100l162 176h30l162 -176h-100l-77 80z" />
    <glyph glyph-name="caron" unicode="&#x2c7;" horiz-adv-x="412" 
d="M221 566h-30l-162 176h100l77 -80l77 80h100z" />
    <glyph glyph-name="breve" unicode="&#x2d8;" horiz-adv-x="256" 
d="M158 700h81c0 -60 -48 -109 -115 -109s-115 49 -115 109h81c0 -21 15 -35 34 -35c20 0 34 14 34 35z" />
    <glyph glyph-name="dotaccent" unicode="&#x2d9;" horiz-adv-x="279" 
d="M87 595c-27 28 -27 74 1 102c28 29 74 29 102 0c28 -28 28 -74 0 -102c-27 -27 -75 -27 -103 0z" />
    <glyph glyph-name="ring" unicode="&#x2da;" horiz-adv-x="234" 
d="M16 653c0 57 44 102 101 102c59 0 101 -45 101 -102c0 -56 -42 -98 -101 -98c-57 0 -101 43 -101 98zM81 654c0 -48 72 -48 72 0c4 51 -76 51 -72 0z" />
    <glyph glyph-name="ogonek" unicode="&#x2db;" horiz-adv-x="240" 
d="M81 -60h69c-37 -33 -56 -59 -56 -79c0 -19 9 -28 28 -28c20 0 29 9 52 40l48 -39c-35 -52 -64 -74 -113 -74c-56 0 -91 32 -91 85c0 36 21 68 63 95z" />
    <glyph glyph-name="tilde" unicode="&#x2dc;" horiz-adv-x="403" 
d="M74 577l-57 47c21 45 68 81 115 81c25 0 49 -7 72 -21c23 -13 43 -20 59 -20c22 0 44 13 66 40l57 -47c-21 -45 -68 -81 -115 -81c-25 0 -50 7 -73 20c-23 14 -42 21 -58 21c-22 0 -44 -13 -66 -40z" />
    <glyph glyph-name="hungarumlaut" unicode="&#x2dd;" horiz-adv-x="450" 
d="M100 560h-80l68 140h141zM308 560h-80l68 140h141z" />
    <glyph glyph-name="uni2206" unicode="&#x394;" horiz-adv-x="682" 
d="M630 0h-578v26l245 674h88l245 -674v-26zM503 94l-162 466l-162 -466h324z" />
    <glyph glyph-name="uni2206" unicode="&#x2206;" horiz-adv-x="682" 
d="M630 0h-578v26l245 674h88l245 -674v-26zM503 94l-162 466l-162 -466h324z" />
    <glyph glyph-name="uni2126" unicode="&#x3a9;" horiz-adv-x="692" 
d="M305 0h-233v94h128c-5 9 -12 19 -36 68c-11 25 -22 51 -31 77c-17 52 -35 132 -35 201c0 77 23 140 68 191c46 51 106 77 180 77s134 -26 179 -77c46 -51 69 -114 69 -191c0 -106 -30 -214 -89 -323c-9 -15 -13 -23 -13 -23h128v-94h-233v36c5 11 12 22 35 82
c12 30 22 60 31 90c19 61 36 155 36 232c0 116 -48 174 -143 174s-143 -58 -143 -174c0 -61 8 -126 25 -193s35 -119 52 -156l25 -55v-36z" />
    <glyph glyph-name="uni2126" unicode="&#x2126;" horiz-adv-x="692" 
d="M305 0h-233v94h128c-5 9 -12 19 -36 68c-11 25 -22 51 -31 77c-17 52 -35 132 -35 201c0 77 23 140 68 191c46 51 106 77 180 77s134 -26 179 -77c46 -51 69 -114 69 -191c0 -106 -30 -214 -89 -323c-9 -15 -13 -23 -13 -23h128v-94h-233v36c5 11 12 22 35 82
c12 30 22 60 31 90c19 61 36 155 36 232c0 116 -48 174 -143 174s-143 -58 -143 -174c0 -61 8 -126 25 -193s35 -119 52 -156l25 -55v-36z" />
    <glyph glyph-name="pi" unicode="&#x3c0;" horiz-adv-x="608" 
d="M138 410h-85v94h501v-94h-85v-410h-104v410h-123v-410h-104v410z" />
    <glyph glyph-name="uni2000" unicode="&#x2000;" horiz-adv-x="475" 
 />
    <glyph glyph-name="uni2001" unicode="&#x2001;" horiz-adv-x="951" 
 />
    <glyph glyph-name="uni2002" unicode="&#x2002;" horiz-adv-x="475" 
 />
    <glyph glyph-name="uni2003" unicode="&#x2003;" horiz-adv-x="951" 
 />
    <glyph glyph-name="uni2004" unicode="&#x2004;" horiz-adv-x="317" 
 />
    <glyph glyph-name="uni2005" unicode="&#x2005;" horiz-adv-x="237" 
 />
    <glyph glyph-name="uni2006" unicode="&#x2006;" horiz-adv-x="158" 
 />
    <glyph glyph-name="uni2007" unicode="&#x2007;" horiz-adv-x="158" 
 />
    <glyph glyph-name="uni2008" unicode="&#x2008;" horiz-adv-x="118" 
 />
    <glyph glyph-name="uni2009" unicode="&#x2009;" horiz-adv-x="190" 
 />
    <glyph glyph-name="uni200A" unicode="&#x200a;" horiz-adv-x="52" 
 />
    <glyph glyph-name="uni2010" unicode="&#x2010;" horiz-adv-x="489" 
d="M421 271h-353v92h353v-92z" />
    <glyph glyph-name="uni2011" unicode="&#x2011;" horiz-adv-x="489" 
d="M421 271h-353v92h353v-92z" />
    <glyph glyph-name="endash" unicode="&#x2013;" horiz-adv-x="581" 
d="M513 271h-445v92h445v-92z" />
    <glyph glyph-name="emdash" unicode="&#x2014;" horiz-adv-x="779" 
d="M711 271h-643v92h643v-92z" />
    <glyph glyph-name="quoteleft" unicode="&#x2018;" horiz-adv-x="318" 
d="M54 708h143l74 -222h-78z" />
    <glyph glyph-name="quoteright" unicode="&#x2019;" horiz-adv-x="318" 
d="M125 486h-78l74 222h143z" />
    <glyph glyph-name="quotesinglbase" unicode="&#x201a;" horiz-adv-x="318" 
d="M125 -14h-78l74 222h143z" />
    <glyph glyph-name="quotedblleft" unicode="&#x201c;" horiz-adv-x="516" 
d="M252 708h143l74 -222h-78zM54 708h143l74 -222h-78z" />
    <glyph glyph-name="quotedblright" unicode="&#x201d;" horiz-adv-x="516" 
d="M125 486h-78l74 222h143zM323 486h-78l74 222h143z" />
    <glyph glyph-name="quotedblbase" unicode="&#x201e;" horiz-adv-x="516" 
d="M125 -14h-78l74 222h143zM323 -14h-78l74 222h143z" />
    <glyph glyph-name="dagger" unicode="&#x2020;" horiz-adv-x="466" 
d="M183 412h-127v92h127v246h100v-246h127v-92h-127v-462h-100v462z" />
    <glyph glyph-name="daggerdbl" unicode="&#x2021;" horiz-adv-x="466" 
d="M183 412h-127v92h127v246h100v-246h127v-92h-127v-124h127v-92h-127v-246h-100v246h-127v92h127v124z" />
    <glyph glyph-name="bullet" unicode="&#x2022;" horiz-adv-x="372" 
d="M111 255c-20 21 -30 46 -30 75s10 54 30 74c21 21 46 31 75 31s54 -10 74 -31c21 -20 31 -45 31 -74s-10 -54 -31 -75c-20 -20 -45 -30 -74 -30s-54 10 -75 30z" />
    <glyph glyph-name="ellipsis" unicode="&#x2026;" horiz-adv-x="854" 
d="M106 121c29 29 77 29 105 0c29 -28 29 -76 0 -105c-28 -28 -76 -28 -105 0c-28 29 -28 77 0 105zM374 121c29 29 77 29 105 0c29 -28 29 -76 0 -105c-28 -28 -76 -28 -105 0c-28 29 -28 77 0 105zM642 121c29 29 77 29 105 0c29 -28 29 -76 0 -105
c-28 -28 -76 -28 -105 0c-28 29 -28 77 0 105z" />
    <glyph glyph-name="uni202F" unicode="&#x202f;" horiz-adv-x="190" 
 />
    <glyph glyph-name="perthousand" unicode="&#x2030;" horiz-adv-x="1240" 
d="M102 434c-31 31 -47 69 -47 114s16 82 47 113s70 47 115 47s84 -16 115 -47s47 -68 47 -113s-16 -83 -47 -114s-70 -46 -115 -46s-84 15 -115 46zM163 603c-27 -28 -27 -82 0 -111c13 -14 31 -21 54 -21s41 7 54 21c27 29 27 83 0 111c-13 15 -31 22 -54 22
s-41 -7 -54 -22zM508 38c-31 31 -47 69 -47 114s16 82 47 113s70 47 115 47s84 -16 115 -47s47 -68 47 -113s-16 -83 -47 -114s-70 -46 -115 -46s-84 15 -115 46zM569 207c-27 -28 -27 -82 0 -111c13 -14 31 -21 54 -21s41 7 54 21c27 29 27 83 0 111c-13 15 -31 22 -54 22
s-41 -7 -54 -22zM908 38c-31 31 -47 69 -47 114s16 82 47 113s70 47 115 47s84 -16 115 -47s47 -68 47 -113s-16 -83 -47 -114s-70 -46 -115 -46s-84 15 -115 46zM969 207c-27 -28 -27 -82 0 -111c13 -14 31 -21 54 -21s41 7 54 21c27 29 27 83 0 111c-13 15 -31 22 -54 22
s-41 -7 -54 -22zM124 13l539 720l58 -45l-539 -720z" />
    <glyph glyph-name="guilsinglleft" unicode="&#x2039;" horiz-adv-x="392" 
d="M339 68l-293 206v72l293 206v-107l-189 -135l189 -135v-107z" />
    <glyph glyph-name="guilsinglright" unicode="&#x203a;" horiz-adv-x="392" 
d="M53 552l293 -206v-72l-293 -206v107l189 135l-189 135v107z" />
    <glyph glyph-name="fraction" unicode="&#x2044;" horiz-adv-x="611" 
d="M7 13l539 720l58 -45l-539 -720z" />
    <glyph glyph-name="uni205F" unicode="&#x205f;" horiz-adv-x="237" 
 />
    <glyph glyph-name="uni2070" unicode="&#x2070;" horiz-adv-x="406" 
d="M86 650c29 36 68 54 117 54s88 -18 116 -54c29 -36 43 -86 43 -150s-14 -114 -43 -150c-28 -36 -67 -54 -116 -54s-88 18 -117 54c-28 36 -42 86 -42 150s14 114 42 150zM260 599c-29 44 -85 44 -114 0c-15 -22 -22 -55 -22 -99s7 -77 22 -99c29 -44 85 -44 114 0
c15 22 22 55 22 99s-7 77 -22 99z" />
    <glyph glyph-name="uni2074" unicode="&#x2074;" horiz-adv-x="344" 
d="M274 300h-77v71h-167v35l160 294h84v-257h44v-72h-44v-71zM197 586l-74 -143h74v143z" />
    <glyph glyph-name="uni2075" unicode="&#x2075;" horiz-adv-x="345" 
d="M45 409l75 10c7 -34 26 -51 58 -51c41 0 61 21 61 63c0 46 -20 69 -61 69c-25 0 -46 -10 -64 -29l-61 13l22 216h217v-72h-152l-12 -82c17 13 39 19 66 19c76 0 125 -55 125 -134c0 -81 -58 -135 -141 -135c-35 0 -65 10 -90 31s-40 49 -43 82z" />
    <glyph glyph-name="uni2076" unicode="&#x2076;" horiz-adv-x="366" 
d="M200 559c71 0 121 -51 121 -132c0 -77 -56 -131 -137 -131s-137 55 -137 131c0 29 6 55 19 78l111 199h88l-89 -149c7 3 15 4 24 4zM127 427c0 -35 24 -59 57 -59s57 24 57 59c0 36 -24 60 -57 60s-57 -24 -57 -60z" />
    <glyph glyph-name="uni2077" unicode="&#x2077;" horiz-adv-x="338" 
d="M43 700h250v-30l-152 -370h-80l135 328h-153v72z" />
    <glyph glyph-name="uni2078" unicode="&#x2078;" horiz-adv-x="356" 
d="M298 596c0 -32 -18 -65 -45 -80c39 -21 58 -52 58 -93c0 -77 -53 -127 -133 -127s-133 50 -133 127c0 41 19 72 58 93c-27 15 -45 48 -45 80c0 61 48 108 120 108s120 -47 120 -108zM217 463c-9 10 -22 15 -39 15s-31 -5 -40 -15c-17 -20 -17 -60 0 -80
c9 -10 23 -15 40 -15s30 5 39 15c19 20 19 60 0 80zM213 632c-17 19 -52 19 -71 0c-17 -19 -17 -53 0 -72c19 -19 54 -19 71 0c19 19 19 53 0 72z" />
    <glyph glyph-name="uni2079" unicode="&#x2079;" horiz-adv-x="366" 
d="M166 441c-71 0 -121 51 -121 132c0 77 56 131 137 131s137 -55 137 -131c0 -29 -6 -55 -19 -78l-111 -199h-88l88 148c-5 -2 -12 -3 -23 -3zM239 573c0 35 -24 59 -57 59s-57 -24 -57 -59c0 -36 24 -60 57 -60s57 24 57 60z" />
    <glyph glyph-name="Euro" unicode="&#x20ac;" horiz-adv-x="633" 
d="M119 380h-90l46 92h52c28 155 127 236 263 236c95 0 163 -38 204 -114l-88 -50c-29 47 -67 70 -116 70c-85 0 -137 -47 -156 -142h213l-46 -92h-176v-60h222l-46 -92h-167c19 -95 71 -142 156 -142c49 0 87 23 116 70l88 -50c-41 -76 -109 -114 -204 -114
c-136 0 -235 81 -263 236h-98l46 92h44v60z" />
    <glyph glyph-name="trademark" unicode="&#x2122;" horiz-adv-x="832" 
d="M130 624h-105v76h294v-76h-105v-324h-84v324zM465 300h-84v400h85l101 -244l101 244h85v-400h-84v226l-75 -189h-54l-75 189v-226z" />
    <glyph glyph-name="partialdiff" unicode="&#x2202;" horiz-adv-x="609" 
d="M46 213c0 85 26 156 79 213s125 86 214 86c43 0 75 -10 98 -30c-13 89 -57 134 -132 134c-45 0 -88 -29 -107 -81l-103 31c13 41 39 75 78 102s83 40 131 40c176 0 245 -109 245 -346c0 -100 -21 -184 -66 -256c-45 -71 -127 -114 -235 -114c-63 0 -112 20 -148 61
s-54 94 -54 160zM327 420c-50 0 -91 -21 -123 -62s-48 -88 -48 -140c0 -80 35 -134 106 -134c51 0 92 21 123 63c31 43 47 91 47 144c0 86 -35 129 -105 129z" />
    <glyph glyph-name="product" unicode="&#x220f;" horiz-adv-x="567" 
d="M194 0h-104v700h387v-700h-104v606h-179v-606z" />
    <glyph glyph-name="summation" unicode="&#x2211;" horiz-adv-x="547" 
d="M485 94v-94h-430v45l192 305l-192 305v45h430v-94h-288l154 -244v-24l-154 -244h288z" />
    <glyph glyph-name="minus" unicode="&#x2212;" horiz-adv-x="571" 
d="M509 271h-445v92h445v-92z" />
    <glyph glyph-name="radical" unicode="&#x221a;" horiz-adv-x="586" 
d="M303 148l162 560h98l-217 -708h-83l-98 295h-110v94h168z" />
    <glyph glyph-name="infinity" unicode="&#x221e;" horiz-adv-x="884" 
d="M640 168c-73 0 -151 34 -198 99c-47 -65 -125 -99 -198 -99c-119 0 -189 76 -189 191s70 191 189 191c73 0 151 -34 198 -99c47 65 125 99 198 99c119 0 189 -76 189 -191s-70 -191 -189 -191zM259 260c44 0 96 31 131 99c-35 68 -87 99 -131 99c-60 0 -100 -35 -100 -99
s40 -99 100 -99zM625 260c60 0 100 35 100 99s-40 99 -100 99c-44 0 -96 -31 -131 -99c35 -68 87 -99 131 -99z" />
    <glyph glyph-name="integral" unicode="&#x222b;" horiz-adv-x="478" 
d="M98 -41l112 571c23 119 91 178 203 178c36 0 63 -6 80 -18l-38 -88c-16 9 -35 14 -57 14c-45 0 -72 -26 -83 -79l-112 -571c-23 -119 -91 -178 -203 -178c-36 0 -63 6 -80 18l38 88c16 -9 35 -14 57 -14c45 0 72 26 83 79z" />
    <glyph glyph-name="approxequal" unicode="&#x2248;" horiz-adv-x="617" 
d="M121 357l-56 60c25 56 83 101 142 101c30 0 65 -9 105 -26s71 -26 93 -26c35 0 66 16 92 47l56 -60c-25 -56 -83 -101 -142 -101c-29 0 -64 9 -105 26c-40 17 -71 26 -93 26c-35 0 -66 -16 -92 -47zM120 157l-56 60c25 56 83 101 142 101c29 0 64 -9 105 -26
s72 -26 93 -26c35 0 66 16 92 47l56 -60c-25 -56 -83 -101 -142 -101c-29 0 -64 9 -105 26c-40 17 -71 26 -93 26c-35 0 -66 -16 -92 -47z" />
    <glyph glyph-name="notequal" unicode="&#x2260;" horiz-adv-x="565" 
d="M251 347h-176v92h228l61 107l80 -46l-35 -61h81v-92h-134l-42 -74h176v-92h-228l-61 -107l-80 46l35 61h-81v92h134z" />
    <glyph glyph-name="lessequal" unicode="&#x2264;" horiz-adv-x="565" 
d="M462 158l-364 192v104l364 192v-111l-254 -133l254 -133v-111zM509 0h-457v92h457v-92z" />
    <glyph glyph-name="greaterequal" unicode="&#x2265;" horiz-adv-x="565" 
d="M103 646l364 -192v-104l-364 -192v111l254 133l-254 133v111zM56 92h457v-92h-457v92z" />
    <glyph glyph-name="lozenge" unicode="&#x25ca;" horiz-adv-x="590" 
d="M345 0h-100l-181 350l181 350h100l181 -350zM167 350l128 -260l128 260l-128 259z" />
    <glyph glyph-name="CR" horiz-adv-x="258" 
 />
    <glyph glyph-name="apple" horiz-adv-x="780" 
d="M686 617v-595c0 -12 -10 -22 -22 -22c-2 0 -4 0 -7 1l-267 77l-267 -77c-3 -1 -5 -1 -7 -1c-12 0 -22 10 -22 22v595c0 11 5 19 16 22l270 78c8 3 12 3 20 0l270 -78c11 -3 16 -11 16 -22zM368 366v303l-230 -67c4 -63 28 -116 71 -161c44 -45 97 -70 159 -75zM642 602
l-230 67v-303c62 5 115 30 158 75c44 45 68 98 72 161zM137 463v-412l231 67v204c-97 8 -183 61 -231 141zM412 118l231 -67v412c-49 -80 -134 -133 -231 -141v-204z" />
    <glyph glyph-name="No" horiz-adv-x="1250" 
d="M499 196v504h110v-700h-118l-287 502v-502h-110v700h118zM772 263c-45 50 -67 112 -67 185s22 135 67 185s106 75 181 75s135 -25 180 -75s68 -112 68 -185s-23 -135 -68 -185s-105 -75 -180 -75s-136 25 -181 75zM851 566c-24 -33 -36 -72 -36 -118s12 -86 36 -119
c25 -33 59 -49 102 -49s77 16 101 49c25 33 37 73 37 119s-12 85 -37 118c-24 33 -58 50 -101 50s-77 -17 -102 -50zM1176 0h-445v92h445v-92z" />
    <glyph glyph-name="zero.tn" 
d="M96 613c43 63 106 95 187 95s144 -32 187 -95s65 -151 65 -263s-22 -200 -65 -263s-106 -95 -187 -95s-144 32 -187 95s-65 151 -65 263s22 200 65 263zM392 544c-24 45 -60 68 -109 68s-85 -23 -110 -68c-24 -45 -36 -110 -36 -194s12 -149 36 -194
c25 -45 61 -68 110 -68s85 23 109 68c25 45 37 110 37 194s-12 149 -37 194z" />
    <glyph glyph-name="one.tn" 
d="M126 584l194 116h43v-700h-106v550l-131 -78v112z" />
    <glyph glyph-name="two.tn" 
d="M495 0h-434v44l258 331c44 55 56 86 56 130c0 65 -33 107 -96 107c-59 0 -96 -42 -104 -107l-100 19c3 53 24 96 62 131c39 35 86 53 142 53c60 0 109 -18 146 -54c38 -35 57 -84 57 -145c0 -57 -19 -111 -58 -160l-199 -253h270v-96z" />
    <glyph glyph-name="three.tn" 
d="M56 193l103 13c13 -79 55 -118 126 -118c75 0 125 50 125 135c0 88 -50 137 -125 137c-20 0 -40 -5 -61 -14l-42 56l145 202h-237v96h390v-36l-170 -232c8 2 18 3 29 3c53 0 96 -20 128 -60c33 -39 49 -90 49 -152c0 -67 -22 -122 -67 -166c-44 -43 -99 -65 -164 -65
c-61 0 -113 19 -157 57s-68 86 -72 144z" />
    <glyph glyph-name="four.tn" 
d="M446 0h-106v140h-302v48l296 512h112v-464h82v-96h-82v-140zM340 540l-170 -304h170v304z" />
    <glyph glyph-name="five.tn" 
d="M65 183l103 19c12 -79 55 -114 115 -114c75 0 117 55 117 140s-41 140 -117 140c-53 0 -98 -24 -134 -72l-69 14l39 390h348v-96h-259l-21 -175c28 23 62 35 102 35c69 0 122 -22 160 -66c38 -43 57 -100 57 -170c0 -69 -20 -126 -61 -170c-40 -44 -94 -66 -162 -66
c-119 0 -205 71 -218 191z" />
    <glyph glyph-name="six.tn" 
d="M287 448c64 0 116 -21 157 -64s61 -97 61 -164c0 -65 -21 -119 -64 -163c-42 -43 -95 -65 -160 -65s-118 22 -161 65c-42 44 -63 98 -63 163c0 45 11 87 34 127l208 361h118l-153 -264c5 3 13 4 23 4zM163 220c0 -77 49 -132 118 -132s118 55 118 132
c0 81 -47 132 -118 132s-118 -51 -118 -132z" />
    <glyph glyph-name="seven.tn" 
d="M75 700h414v-48l-268 -652h-106l249 604h-289v96z" />
    <glyph glyph-name="eight.tn" 
d="M481 519c0 -57 -23 -104 -70 -142c64 -37 96 -94 96 -171c0 -65 -22 -117 -65 -156s-96 -58 -159 -58s-116 19 -159 58s-65 91 -65 156c0 77 32 134 96 171c-47 37 -70 84 -70 142c0 53 19 97 56 134s85 55 142 55s105 -18 142 -55s56 -81 56 -134zM367 290
c-22 20 -50 30 -84 30s-62 -10 -85 -30c-22 -20 -33 -48 -33 -84s11 -65 34 -86s51 -32 84 -32s61 11 84 32s34 50 34 86s-11 64 -34 84zM188 518c0 -57 40 -99 95 -99s95 42 95 99c0 56 -40 98 -95 98s-95 -42 -95 -98z" />
    <glyph glyph-name="nine.tn" 
d="M279 252c-64 0 -116 21 -157 64s-61 97 -61 164c0 65 21 119 63 162c43 44 96 66 161 66s118 -22 160 -66c43 -43 64 -97 64 -162c0 -45 -11 -87 -34 -127l-208 -361h-118l153 264c-5 -3 -13 -4 -23 -4zM403 480c0 77 -49 132 -118 132s-118 -55 -118 -132
c0 -81 47 -132 118 -132s118 51 118 132z" />
    </font>
</defs>
</svg>
