<?xml version="1.0" standalone="no"?>
<!DOCTYPE svg PUBLIC "-//W3C//DTD SVG 1.1//EN" "http://www.w3.org/Graphics/SVG/1.1/DTD/svg11.dtd" >
<svg xmlns="http://www.w3.org/2000/svg" xmlns:xlink="http://www.w3.org/1999/xlink" version="1.1">
<metadata>
Created by FontForge 20170910 at Fri Aug 27 16:47:27 2010
 By Jimmy Wärting
Copyright (c) 2009 by The Entente (AS &#38; EH). All rights reserved.
</metadata>
<defs>
<font id="Apercu-BoldItalic" horiz-adv-x="572" >
  <font-face 
    font-family="Apercu"
    font-weight="700"
    font-style="italic"
    font-stretch="normal"
    units-per-em="1000"
    panose-1="2 0 8 3 4 0 0 9 0 4"
    ascent="800"
    descent="-200"
    x-height="504"
    cap-height="700"
    bbox="-118 -266 1259 953"
    underline-thickness="50"
    underline-position="-100"
    slope="-12"
    unicode-range="U+0020-FB02"
  />
<missing-glyph horiz-adv-x="651" 
d="M561 0h-471v700h471v-700zM438 106v488h-225v-488h225z" />
    <glyph glyph-name="uniFB01" unicode="fi" horiz-adv-x="557" 
d="M95 398h-64l21 106h64l1 6c22 132 111 198 266 198c65 0 114 -10 147 -29l-54 -102c-33 17 -66 25 -99 25c-78 0 -123 -31 -135 -93l-1 -5h281l-98 -504h-125l77 398h-156l-77 -398h-125z" />
    <glyph glyph-name="uniFB02" unicode="fl" horiz-adv-x="633" 
d="M95 398h-64l21 106h64l5 26c23 119 101 178 209 178h276l-137 -708h-125l117 602h-144c-38 0 -61 -21 -70 -63l-6 -35h106l-21 -106h-106l-77 -398h-125z" />
    <glyph glyph-name=".notdef" horiz-adv-x="651" 
d="M561 0h-471v700h471v-700zM438 106v488h-225v-488h225z" />
    <glyph glyph-name="NULL" horiz-adv-x="0" 
 />
    <glyph glyph-name="CR.001" horiz-adv-x="333" 
 />
    <glyph glyph-name="space" unicode=" " horiz-adv-x="221" 
 />
    <glyph glyph-name="exclam" unicode="!" horiz-adv-x="369" 
d="M116 242l61 458h164l-117 -458h-108zM56 76c0 47 38 84 83 84s83 -37 83 -84c0 -45 -36 -82 -83 -82s-83 37 -83 82z" />
    <glyph glyph-name="quotedbl" unicode="&#x22;" horiz-adv-x="482" 
d="M191 459h-76l18 249h138zM381 459h-76l18 249h138z" />
    <glyph glyph-name="numbersign" unicode="#" horiz-adv-x="716" 
d="M220 409h-118l12 98h138l63 193h100l-63 -193h113l63 193h100l-63 -193h115l-12 -98h-135l-38 -118h118l-12 -98h-138l-63 -193h-100l63 193h-113l-63 -193h-100l63 193h-115l12 98h135zM433 409h-113l-38 -118h113z" />
    <glyph glyph-name="dollar" unicode="$" horiz-adv-x="540" 
d="M512 577l-108 -60c-19 47 -50 71 -91 71c-44 0 -73 -27 -73 -72c0 -41 31 -69 100 -104c49 -25 85 -50 107 -77c23 -26 34 -64 34 -114c0 -75 -25 -132 -75 -172c-38 -31 -83 -49 -136 -55l-16 -84h-122l17 93c-41 14 -74 38 -100 73c-25 35 -38 73 -38 114l111 60
c8 -85 48 -138 125 -138c60 0 99 34 99 94c0 52 -28 75 -99 114c-89 48 -138 101 -138 192c0 51 16 95 49 130s76 56 129 63l16 85h122l-19 -98c54 -23 89 -61 106 -115z" />
    <glyph glyph-name="percent" unicode="%" horiz-adv-x="887" 
d="M55 522c0 55 20 100 61 137c36 33 82 49 137 49c79 0 136 -55 136 -134c0 -55 -20 -100 -61 -137c-36 -33 -82 -49 -137 -49c-79 0 -136 55 -136 134zM235 613c-43 0 -77 -34 -77 -78c0 -35 17 -52 51 -52c43 0 77 34 77 78c0 35 -17 52 -51 52zM464 126
c0 55 20 100 61 137c36 33 82 49 137 49c79 0 136 -55 136 -134c0 -55 -20 -100 -61 -137c-36 -33 -82 -49 -137 -49c-79 0 -136 55 -136 134zM644 217c-43 0 -77 -34 -77 -78c0 -35 17 -52 51 -52c43 0 77 34 77 78c0 35 -17 52 -51 52zM60 25l677 719l63 -61l-677 -719z
" />
    <glyph glyph-name="ampersand" unicode="&#x26;" horiz-adv-x="645" 
d="M233 -8c-59 0 -108 17 -147 52c-38 35 -57 82 -57 139c0 113 60 195 179 244c-17 32 -25 68 -25 107c0 52 17 94 52 126s80 48 135 48c91 0 148 -56 148 -131c0 -91 -55 -147 -150 -194l76 -134c26 45 49 90 68 133l61 -92c-22 -53 -46 -100 -73 -139l86 -151h-139
l-32 56c-55 -43 -116 -64 -182 -64zM259 100c35 0 69 16 104 47l-106 189c-71 -29 -106 -71 -106 -128c0 -67 41 -108 108 -108zM358 604c-39 0 -65 -33 -65 -73c0 -19 8 -40 23 -64c57 26 86 57 86 94c0 25 -19 43 -44 43z" />
    <glyph glyph-name="quotesingle" unicode="'" horiz-adv-x="292" 
d="M191 459h-76l18 249h138z" />
    <glyph glyph-name="parenleft" unicode="(" horiz-adv-x="286" 
d="M241 750h107c-62 -83 -109 -168 -142 -255c-33 -86 -49 -183 -49 -291c0 -101 12 -185 36 -254h-107c-30 83 -45 174 -45 271c0 101 18 199 54 294s85 174 146 235z" />
    <glyph glyph-name="parenright" unicode=")" horiz-adv-x="286" 
d="M41 -50h-107c62 83 109 168 142 254c33 87 49 184 49 292c0 101 -12 185 -36 254h107c30 -83 45 -174 45 -271c0 -101 -18 -200 -54 -295s-85 -173 -146 -234z" />
    <glyph glyph-name="asterisk" unicode="*" horiz-adv-x="492" 
d="M251 708h104l-22 -113l109 36l26 -99l-122 -37l49 -91l-96 -63l-49 93l-85 -93l-72 63l85 91l-99 37l44 99l106 -36z" />
    <glyph glyph-name="plus" unicode="+" horiz-adv-x="606" 
d="M247 371l36 184h109l-36 -184h184l-21 -108h-184l-36 -184h-109l36 184h-184l21 108h184z" />
    <glyph glyph-name="comma" unicode="," horiz-adv-x="381" 
d="M77 -156h-86l134 302h164z" />
    <glyph glyph-name="hyphen" unicode="-" horiz-adv-x="505" 
d="M421 263h-373l21 108h373z" />
    <glyph glyph-name="period" unicode="." horiz-adv-x="304" 
d="M44 18c-32 32 -32 88 0 120s88 32 120 0s32 -88 0 -120s-88 -32 -120 0z" />
    <glyph glyph-name="slash" unicode="/" horiz-adv-x="548" 
d="M-87 -50l582 800h133l-582 -800h-133z" />
    <glyph glyph-name="zero" unicode="0" horiz-adv-x="606" 
d="M576 449c1 -214 -94 -456 -343 -457c-59 0 -107 21 -146 64c-38 43 -57 108 -57 195c3 163 49 333 184 416c46 27 99 41 158 41s108 -22 146 -65c39 -43 58 -107 58 -194zM350 592c-42 0 -78 -20 -109 -59c-61 -79 -84 -184 -84 -277c0 -97 38 -148 99 -148
c42 0 78 20 109 59c61 79 84 184 84 277c0 97 -38 148 -99 148z" />
    <glyph glyph-name="one" unicode="1" horiz-adv-x="428" 
d="M94 580l229 120h56l-137 -700h-127l102 524l-149 -80z" />
    <glyph glyph-name="two" unicode="2" horiz-adv-x="555" 
d="M431 0h-447l9 50l312 326c56 57 83 98 83 150c0 41 -24 66 -67 66c-50 0 -85 -33 -106 -100l-119 20c29 121 116 196 235 196s184 -65 184 -174c0 -72 -25 -123 -81 -182l-223 -236h242z" />
    <glyph glyph-name="three" unicode="3" horiz-adv-x="558" 
d="M3 195l116 15c9 -68 43 -102 103 -102c80 0 124 54 124 134c0 73 -31 110 -92 110c-21 0 -42 -5 -64 -15l-36 66l164 189h-218l20 108h402l-8 -44l-210 -223c13 1 23 2 29 2c87 0 140 -60 140 -177c0 -83 -23 -148 -70 -195s-110 -71 -189 -71c-63 0 -114 20 -153 59
c-39 40 -58 88 -58 144z" />
    <glyph glyph-name="four" unicode="4" horiz-adv-x="591" 
d="M404 0h-127l26 130h-300l12 64l393 506h133l-89 -454h78l-22 -116h-78zM374 500l-184 -254h135z" />
    <glyph glyph-name="five" unicode="5" horiz-adv-x="557" 
d="M12 190l122 18c3 -65 38 -100 94 -100c77 0 127 55 127 142c0 65 -32 103 -88 103c-52 0 -99 -21 -142 -63l-76 16l110 394h367l-22 -116h-260l-44 -146c33 17 66 26 99 26c116 0 183 -67 183 -195c0 -85 -25 -152 -74 -202s-114 -75 -197 -75c-62 0 -111 17 -147 50
c-35 34 -53 76 -53 127c0 9 0 16 1 21z" />
    <glyph glyph-name="six" unicode="6" horiz-adv-x="579" 
d="M511 708l-204 -260h16c113 0 186 -71 186 -195c0 -82 -26 -146 -78 -192c-51 -46 -116 -69 -194 -69c-61 0 -111 18 -149 53c-37 36 -56 81 -56 136c0 62 22 121 66 178l268 349h145zM292 332c-36 0 -67 -13 -94 -38c-26 -25 -39 -57 -39 -94c0 -55 40 -92 89 -92
c37 0 68 13 94 38c27 25 40 56 40 93c0 60 -37 93 -90 93z" />
    <glyph glyph-name="seven" unicode="7" horiz-adv-x="509" 
d="M119 700h426l-11 -52l-380 -648h-135l342 584h-265z" />
    <glyph glyph-name="eight" unicode="8" horiz-adv-x="559" 
d="M343 708c111 0 178 -63 178 -174c0 -72 -48 -134 -105 -159c37 -20 71 -83 71 -148c0 -69 -21 -124 -62 -164c-49 -47 -118 -71 -207 -71c-57 0 -104 17 -142 52s-57 79 -57 133c0 95 55 167 134 203c-27 23 -49 68 -49 115c0 61 23 111 68 152s102 61 171 61zM273 310
c-71 0 -127 -46 -127 -115c0 -56 38 -87 90 -87c69 0 124 40 124 112c0 57 -34 90 -87 90zM328 604c-56 0 -105 -42 -105 -102c0 -44 29 -76 72 -76c60 0 107 42 107 101c0 47 -29 77 -74 77z" />
    <glyph glyph-name="nine" unicode="9" horiz-adv-x="549" 
d="M51 -8l204 260h-16c-113 0 -186 71 -186 195c0 82 26 146 77 192c52 46 117 69 195 69c61 0 111 -18 148 -54c38 -35 57 -80 57 -135c0 -62 -22 -121 -66 -178l-268 -349h-145zM270 368c36 0 67 13 93 38c27 25 40 57 40 94c0 56 -36 92 -89 92c-37 0 -68 -13 -95 -38
c-26 -25 -39 -56 -39 -93c0 -60 37 -93 90 -93z" />
    <glyph glyph-name="colon" unicode=":" horiz-adv-x="328" 
d="M56 18c-32 32 -32 88 0 120s88 32 120 0s32 -88 0 -120s-88 -32 -120 0zM125 368c-32 32 -32 88 0 120s88 32 120 0s32 -88 0 -120s-88 -32 -120 0z" />
    <glyph glyph-name="semicolon" unicode=";" horiz-adv-x="328" 
d="M125 368c-32 32 -32 88 0 120s88 32 120 0s32 -88 0 -120s-88 -32 -120 0zM29 -156h-86l134 302h164z" />
    <glyph glyph-name="less" unicode="&#x3c;" horiz-adv-x="484" 
d="M423 48l-391 203v118l391 203v-131l-252 -131l252 -131v-131z" />
    <glyph glyph-name="equal" unicode="=" horiz-adv-x="607" 
d="M513 346h-437v108h437v-108zM513 166h-437v108h437v-108z" />
    <glyph glyph-name="greater" unicode="&#x3e;" horiz-adv-x="484" 
d="M61 572l391 -203v-118l-391 -203v131l252 131l-252 131v131z" />
    <glyph glyph-name="question" unicode="?" horiz-adv-x="457" 
d="M274 353l85 -30c-39 -79 -90 -110 -163 -110c-76 0 -126 46 -126 114c0 72 37 102 117 135l94 39c33 16 49 35 49 57c0 28 -19 46 -54 46c-44 0 -77 -27 -99 -81l-109 26c32 96 113 159 220 159c97 0 160 -50 160 -142c0 -63 -33 -108 -98 -133l-124 -47
c-33 -12 -49 -25 -49 -50c0 -19 13 -33 33 -33c23 0 45 17 64 50zM72 76c0 47 38 84 83 84s83 -37 83 -84c0 -45 -36 -82 -83 -82s-83 37 -83 82z" />
    <glyph glyph-name="at" unicode="@" horiz-adv-x="918" 
d="M238 277c0 72 23 130 70 173c47 44 104 66 172 66c47 0 84 -13 109 -38l15 31h83l-47 -219c-5 -23 -7 -37 -7 -42c0 -24 12 -36 37 -36c52 0 78 53 78 160c0 163 -89 242 -248 242c-96 0 -174 -31 -235 -92s-91 -142 -91 -245c0 -87 25 -154 76 -199s114 -68 190 -68
c83 0 175 23 274 68l30 -102c-62 -26 -116 -44 -161 -54c-45 -11 -94 -16 -147 -16c-111 0 -202 32 -274 97s-108 154 -108 268c0 136 42 244 126 325s193 122 327 122c105 0 191 -29 259 -87s102 -138 102 -241c0 -85 -18 -153 -54 -205c-36 -51 -90 -77 -162 -77
c-49 0 -93 24 -109 65c-39 -43 -87 -65 -142 -65c-104 0 -163 64 -163 169zM469 412c-33 0 -61 -13 -83 -38s-33 -54 -33 -89c0 -43 26 -73 70 -73c68 0 122 49 122 121c0 51 -27 79 -76 79z" />
    <glyph glyph-name="A" unicode="A" horiz-adv-x="598" 
d="M539 0h-140l-18 165h-222l-84 -165h-141l374 700h128zM367 285l-27 247l-121 -247h148z" />
    <glyph glyph-name="B" unicode="B" horiz-adv-x="617" 
d="M26 0l137 700h246c107 0 177 -56 177 -159c0 -72 -39 -134 -100 -161c41 -19 77 -68 77 -136c0 -157 -100 -244 -256 -244h-281zM376 580h-106l-29 -152h111c60 0 103 27 103 82c0 47 -26 70 -79 70zM339 308h-122l-36 -188h126c75 0 125 35 125 104c0 56 -31 84 -93 84z
" />
    <glyph glyph-name="C" unicode="C" horiz-adv-x="694" 
d="M690 487l-123 -30c-19 91 -66 131 -150 131c-73 0 -132 -30 -179 -89s-70 -126 -70 -201c0 -121 61 -186 156 -186c83 0 138 40 189 136l115 -36c-64 -153 -166 -220 -327 -220c-75 0 -139 27 -190 81s-76 125 -76 214c0 115 38 214 114 297c77 83 174 124 291 124
c73 0 132 -21 175 -62s68 -94 75 -159z" />
    <glyph glyph-name="D" unicode="D" horiz-adv-x="680" 
d="M239 0h-213l137 700h199c83 0 150 -24 202 -73c53 -49 79 -118 79 -208c0 -130 -37 -232 -112 -307c-74 -75 -171 -112 -292 -112zM270 580l-89 -460h55c85 0 151 25 199 76c49 51 73 118 73 202c0 133 -71 182 -190 182h-48z" />
    <glyph glyph-name="E" unicode="E" horiz-adv-x="574" 
d="M26 0l137 700h423l-24 -120h-292l-28 -147h232l-24 -120h-232l-37 -193h302l-24 -120h-433z" />
    <glyph glyph-name="F" unicode="F" horiz-adv-x="560" 
d="M26 0l137 700h430l-24 -120h-299l-31 -160h238l-23 -120h-238l-59 -300h-131z" />
    <glyph glyph-name="G" unicode="G" horiz-adv-x="726" 
d="M589 0h-108v69c-42 -51 -103 -77 -183 -77c-73 0 -136 26 -187 78s-76 123 -76 212c-4 233 156 429 401 426c145 0 230 -86 250 -221l-122 -32c-28 88 -71 133 -152 133c-71 0 -129 -28 -174 -84s-68 -124 -68 -203c0 -119 61 -189 158 -189c91 0 155 56 183 135h-130
l21 106h256z" />
    <glyph glyph-name="H" unicode="H" horiz-adv-x="712" 
d="M157 0h-131l137 700h131l-52 -266h261l52 266h131l-137 -700h-131l62 314h-261z" />
    <glyph glyph-name="I" unicode="I" horiz-adv-x="320" 
d="M163 700h131l-137 -700h-131z" />
    <glyph glyph-name="J" unicode="J" horiz-adv-x="553" 
d="M-11 189l128 25c0 -61 29 -102 80 -102c61 0 99 40 114 120l91 468h131l-98 -503c-13 -67 -38 -118 -75 -151c-41 -36 -99 -54 -175 -54c-60 0 -108 19 -143 57s-53 85 -53 140z" />
    <glyph glyph-name="K" unicode="K" horiz-adv-x="637" 
d="M26 0l137 700h131l-52 -259l266 259h167l-334 -317l225 -383h-160l-185 333l-64 -333h-131z" />
    <glyph glyph-name="L" unicode="L" horiz-adv-x="518" 
d="M26 0l137 700h131l-113 -580h286l-24 -120h-417z" />
    <glyph glyph-name="M" unicode="M" horiz-adv-x="803" 
d="M157 0h-131l137 700h147l72 -437l241 437h154l-137 -700h-131l83 424l-197 -360h-95l-59 368z" />
    <glyph glyph-name="N" unicode="N" horiz-adv-x="712" 
d="M465 238l90 462h131l-137 -700h-138l-164 462l-90 -462h-131l137 700h138z" />
    <glyph glyph-name="O" unicode="O" horiz-adv-x="732" 
d="M309 -8c-77 0 -142 25 -195 76s-79 124 -79 218c0 116 32 213 97 290c73 88 169 132 289 132c77 0 142 -26 195 -77s79 -123 79 -217c0 -116 -32 -213 -97 -290c-73 -88 -169 -132 -289 -132zM319 112c65 0 120 27 166 80c50 59 75 129 75 212c0 116 -53 184 -149 184
c-65 0 -120 -27 -166 -80c-50 -59 -75 -129 -75 -212c0 -116 53 -184 149 -184z" />
    <glyph glyph-name="P" unicode="P" horiz-adv-x="596" 
d="M323 274h-112l-54 -274h-131l137 700h245c120 0 196 -65 196 -185c0 -75 -26 -134 -78 -177c-51 -43 -119 -64 -203 -64zM270 580l-36 -186h110c75 0 125 42 125 110c0 48 -29 76 -81 76h-118z" />
    <glyph glyph-name="Q" unicode="Q" horiz-adv-x="732" 
d="M35 286c0 116 32 213 97 290c73 88 169 132 289 132c77 0 142 -26 195 -77s79 -123 79 -217c0 -107 -28 -198 -83 -271l50 -61l-108 -90l-44 53c-57 -35 -124 -53 -201 -53s-142 25 -195 76s-79 124 -79 218zM319 112c41 0 78 11 111 32l-72 90l108 90l59 -73
c23 45 35 96 35 153c0 116 -53 184 -149 184c-65 0 -120 -27 -166 -80c-50 -59 -75 -129 -75 -212c0 -116 53 -184 149 -184z" />
    <glyph glyph-name="R" unicode="R" horiz-adv-x="614" 
d="M598 534c0 -60 -17 -109 -52 -148c-35 -38 -76 -62 -125 -73l136 -313h-141l-129 302h-71l-59 -302h-131l137 700h248c117 0 187 -66 187 -166zM270 580l-31 -158h119c61 0 107 37 107 93c0 43 -24 65 -72 65h-123z" />
    <glyph glyph-name="S" unicode="S" horiz-adv-x="540" 
d="M512 577l-108 -60c-19 47 -50 71 -91 71c-44 0 -73 -27 -73 -72c0 -41 31 -69 100 -104c49 -25 85 -50 107 -77c23 -26 34 -64 34 -114c0 -75 -25 -132 -75 -172c-53 -43 -105 -57 -190 -57c-56 0 -104 20 -145 60c-40 40 -60 86 -60 138l111 60c8 -85 48 -138 125 -138
c60 0 99 34 99 94c0 52 -28 75 -99 114c-89 48 -138 101 -138 192c0 59 20 106 60 142c41 36 93 54 156 54c45 0 85 -13 119 -38c35 -25 57 -56 68 -93z" />
    <glyph glyph-name="T" unicode="T" horiz-adv-x="524" 
d="M239 580h-190l24 120h511l-24 -120h-190l-113 -580h-131z" />
    <glyph glyph-name="U" unicode="U" horiz-adv-x="681" 
d="M530 700h132l-84 -434c-39 -199 -142 -274 -310 -274c-125 0 -210 74 -210 203c0 21 3 45 8 71l84 434h131l-84 -436c-4 -21 -6 -39 -6 -53c0 -63 35 -99 100 -99c83 0 135 51 155 152z" />
    <glyph glyph-name="V" unicode="V" horiz-adv-x="584" 
d="M654 700l-370 -700h-131l-100 700h142l56 -518l258 518h145z" />
    <glyph glyph-name="W" unicode="W" horiz-adv-x="904" 
d="M596 185l216 515h138l-316 -700h-133l-44 411l-197 -411h-131l-51 700h138l18 -512l204 438h115z" />
    <glyph glyph-name="X" unicode="X" horiz-adv-x="568" 
d="M323 495l152 205h142l-245 -329l138 -371h-135l-94 254l-195 -254h-146l293 377l-124 323h142z" />
    <glyph glyph-name="Y" unicode="Y" horiz-adv-x="508" 
d="M173 298l-125 402h138l73 -272l182 272h140l-278 -402l-57 -298h-131z" />
    <glyph glyph-name="Z" unicode="Z" horiz-adv-x="577" 
d="M385 580h-287l24 120h467l-12 -60l-401 -520h316l-24 -120h-497l12 60z" />
    <glyph glyph-name="bracketleft" unicode="[" horiz-adv-x="353" 
d="M248 -50h-230l154 800h231l-21 -108h-110l-113 -584h110z" />
    <glyph glyph-name="backslash" unicode="\" horiz-adv-x="466" 
d="M312 -50l-279 800h125l279 -800h-125z" />
    <glyph glyph-name="bracketright" unicode="]" horiz-adv-x="353" 
d="M134 750h231l-155 -800h-230l21 108h109l113 584h-110z" />
    <glyph glyph-name="asciicircum" unicode="^" horiz-adv-x="612" 
d="M63 403l196 297h107l196 -297h-122l-127 189l-128 -189h-122z" />
    <glyph glyph-name="underscore" unicode="_" horiz-adv-x="501" 
d="M405 -108h-455l21 108h455z" />
    <glyph glyph-name="grave" unicode="`" horiz-adv-x="229" 
d="M50 708h168l35 -148h-95z" />
    <glyph glyph-name="a" unicode="a" horiz-adv-x="603" 
d="M310 512c49 0 93 -23 112 -51l8 43h125l-97 -504h-125l10 52c-21 -29 -77 -60 -134 -60c-60 0 -106 19 -139 57c-32 39 -48 88 -48 147c0 94 25 170 76 228c51 59 121 88 212 88zM155 219c0 -76 37 -121 92 -121c47 0 84 19 111 58s40 85 40 139c0 71 -36 111 -92 111
c-47 0 -84 -20 -111 -59s-40 -81 -40 -128z" />
    <glyph glyph-name="b" unicode="b" horiz-adv-x="604" 
d="M550 303c0 -91 -24 -165 -72 -224c-48 -58 -115 -87 -202 -87c-59 0 -105 29 -122 60l-11 -52h-125l138 708h125l-49 -250c39 36 83 54 134 54c111 0 184 -77 184 -209zM273 98c45 0 80 20 105 59c26 39 39 83 39 130c0 76 -35 119 -92 119c-45 0 -81 -19 -108 -56
s-41 -81 -41 -134c0 -75 36 -118 97 -118z" />
    <glyph glyph-name="c" unicode="c" horiz-adv-x="559" 
d="M379 185l99 -42c-61 -107 -139 -151 -254 -151c-63 0 -112 20 -148 60s-54 90 -54 151c0 84 28 156 84 217s129 92 219 92c108 0 174 -48 198 -145l-114 -42c-15 54 -50 81 -105 81c-47 0 -83 -20 -110 -59c-26 -39 -39 -84 -39 -135c0 -76 30 -114 90 -114
c49 0 93 29 134 87z" />
    <glyph glyph-name="d" unicode="d" horiz-adv-x="616" 
d="M301 512c56 0 104 -25 121 -54l49 250h125l-138 -708h-125l11 52c-31 -40 -75 -60 -134 -60c-116 0 -188 80 -188 208c0 91 25 166 75 224c50 59 118 88 204 88zM155 217c0 -77 34 -119 93 -119c47 0 83 21 110 64s40 87 40 132c0 75 -35 112 -91 112
c-47 0 -85 -20 -112 -59s-40 -82 -40 -130z" />
    <glyph glyph-name="e" unicode="e" horiz-adv-x="567" 
d="M517 263l-10 -51h-362v-16c0 -55 39 -98 102 -98c53 0 99 29 138 86l99 -51c-65 -97 -137 -141 -248 -141c-63 0 -115 20 -156 60c-40 40 -60 94 -60 163c0 81 28 150 83 209s127 88 216 88c64 0 114 -19 149 -57s53 -86 53 -145c0 -19 -1 -35 -4 -47zM303 406
c-60 0 -111 -41 -134 -96h230c-4 64 -36 96 -96 96z" />
    <glyph glyph-name="f" unicode="f" horiz-adv-x="358" 
d="M95 398h-64l21 106h64l5 27c23 118 91 177 206 177c35 0 66 -8 92 -23l-46 -100c-17 11 -37 17 -59 17c-37 0 -59 -21 -67 -63l-6 -35h106l-21 -106h-106l-77 -398h-125z" />
    <glyph glyph-name="g" unicode="g" horiz-adv-x="531" 
d="M84 319c0 55 19 100 57 137s87 56 148 56c43 0 78 -7 104 -22l104 50l38 -79l-83 -39c5 -16 8 -35 8 -56c0 -121 -85 -192 -210 -192c-29 0 -56 4 -81 13c-21 -9 -32 -22 -32 -41c0 -20 15 -36 40 -36h110c88 0 143 -46 143 -131c0 -63 -24 -111 -71 -143
s-108 -48 -185 -48c-127 0 -204 60 -204 153c0 46 20 84 60 113c-12 13 -18 33 -18 59c0 55 31 97 94 126c-15 23 -22 49 -22 80zM238 6h-74c-23 0 -42 1 -57 4c-14 -14 -21 -31 -21 -51c0 -40 37 -65 100 -65c79 0 119 21 119 62c0 33 -22 50 -67 50zM284 411
c-47 0 -83 -30 -83 -79c0 -36 24 -58 60 -58c47 0 82 28 82 77c0 37 -23 60 -59 60z" />
    <glyph glyph-name="h" unicode="h" horiz-adv-x="594" 
d="M18 0l137 708h125l-55 -285c52 59 110 89 173 89c81 0 131 -47 131 -119c0 -11 -1 -25 -4 -41l-68 -352h-125l61 316c3 15 4 26 4 33c0 38 -20 57 -61 57c-61 0 -127 -66 -152 -193l-41 -213h-125z" />
    <glyph glyph-name="i" unicode="i" horiz-adv-x="288" 
d="M18 0l98 504h125l-98 -504h-125zM145 592c-31 31 -31 83 0 114s83 31 114 0s31 -83 0 -114s-83 -31 -114 0z" />
    <glyph glyph-name="j" unicode="j" horiz-adv-x="288" 
d="M20 13l95 491h125l-96 -500c-28 -145 -104 -203 -249 -216l-13 109c77 19 121 48 138 116zM145 592c-31 31 -31 83 0 114s83 31 114 0s31 -83 0 -114s-83 -31 -114 0z" />
    <glyph glyph-name="k" unicode="k" horiz-adv-x="531" 
d="M18 0l137 708h125l-75 -390l182 186h152l-237 -233l157 -271h-146l-124 235l-46 -235h-125z" />
    <glyph glyph-name="l" unicode="l" horiz-adv-x="314" 
d="M25 0l137 708h125l-137 -708h-125z" />
    <glyph glyph-name="m" unicode="m" horiz-adv-x="859" 
d="M470 196l-38 -196h-125l65 336c1 7 2 15 2 23c0 31 -16 47 -47 47c-60 0 -119 -75 -146 -210l-38 -196h-125l98 504h125l-15 -75c40 55 91 83 154 83c67 0 114 -35 122 -104c52 69 108 104 167 104c80 0 125 -41 125 -116c0 -11 -1 -24 -4 -39l-69 -357h-125l65 336
c1 7 2 15 2 23c0 31 -16 47 -47 47c-60 0 -121 -75 -146 -210z" />
    <glyph glyph-name="n" unicode="n" horiz-adv-x="585" 
d="M18 0l98 504h125l-16 -81c47 59 103 89 169 89c81 0 126 -42 126 -113c0 -13 -1 -26 -4 -39l-70 -360h-125l63 323c2 11 3 21 3 29c0 35 -21 54 -54 54c-64 0 -126 -77 -151 -205l-39 -201h-125z" />
    <glyph glyph-name="o" unicode="o" horiz-adv-x="588" 
d="M22 205c0 96 29 172 86 227c61 59 119 80 206 80c67 0 120 -20 160 -61c40 -40 60 -91 60 -152c0 -96 -29 -172 -86 -227c-61 -59 -119 -80 -206 -80c-67 0 -120 20 -160 60c-40 41 -60 92 -60 153zM303 406c-47 0 -84 -18 -111 -54c-25 -31 -37 -74 -37 -128
c0 -77 38 -126 98 -126c47 0 84 18 111 54c25 31 37 74 37 128c0 77 -38 126 -98 126z" />
    <glyph glyph-name="p" unicode="p" horiz-adv-x="610" 
d="M277 -8c-56 0 -104 25 -121 54l-49 -250h-125l138 708h125l-11 -52c31 40 75 60 134 60c116 0 188 -80 188 -208c0 -91 -25 -166 -75 -225c-50 -58 -118 -87 -204 -87zM423 287c0 77 -34 119 -93 119c-47 0 -83 -21 -110 -64s-40 -87 -40 -132c0 -75 35 -112 91 -112
c47 0 84 19 111 58s41 83 41 131z" />
    <glyph glyph-name="q" unicode="q" horiz-adv-x="600" 
d="M22 201c0 91 24 165 72 223c48 59 115 88 202 88c59 0 105 -29 122 -60l11 52h125l-138 -708h-125l49 250c-39 -36 -83 -54 -134 -54c-111 0 -184 77 -184 209zM299 406c-45 0 -80 -20 -106 -59c-25 -39 -38 -83 -38 -130c0 -76 35 -119 92 -119c45 0 81 18 108 55
s41 82 41 135c0 75 -36 118 -97 118z" />
    <glyph glyph-name="r" unicode="r" horiz-adv-x="448" 
d="M178 179l-35 -179h-125l98 504h125l-15 -75c44 55 97 83 158 83c22 0 44 -4 65 -13l-42 -112c-13 9 -30 14 -51 14c-35 0 -70 -19 -105 -56s-59 -93 -73 -166z" />
    <glyph glyph-name="s" unicode="s" horiz-adv-x="459" 
d="M262 512c34 0 66 -8 96 -25c30 -16 50 -36 61 -61l-89 -64c-17 29 -42 44 -77 44c-28 0 -49 -17 -49 -45c0 -13 6 -25 21 -34c7 -5 14 -9 20 -12l46 -20c64 -29 104 -65 104 -128c0 -117 -78 -175 -198 -175c-55 0 -98 15 -130 45c-32 31 -52 65 -60 103l106 44
c14 -57 47 -86 98 -86c36 0 64 17 64 52c0 27 -23 45 -86 74c-69 33 -103 77 -103 134c0 95 67 154 176 154z" />
    <glyph glyph-name="t" unicode="t" horiz-adv-x="370" 
d="M283 708l-39 -204h121c-13 -70 -19 -105 -20 -106h-121l-43 -218c-3 -16 -4 -25 -4 -28c0 -36 18 -54 54 -54c15 0 30 4 47 12l8 -97c-30 -14 -63 -21 -98 -21c-84 0 -136 51 -136 140c0 19 1 34 4 46l43 220h-78l20 106h78l25 128z" />
    <glyph glyph-name="u" unicode="u" horiz-adv-x="589" 
d="M543 504l-98 -504h-125l16 81c-47 -59 -103 -89 -169 -89c-81 0 -126 42 -126 113c0 13 1 26 4 39l70 360h125l-63 -323c-2 -11 -3 -21 -3 -29c0 -35 19 -54 54 -54c64 0 126 77 151 205l39 201h125z" />
    <glyph glyph-name="v" unicode="v" horiz-adv-x="456" 
d="M97 0l-76 504h125l33 -348l171 348h125l-262 -504h-116z" />
    <glyph glyph-name="w" unicode="w" horiz-adv-x="751" 
d="M472 162l151 342h131l-254 -504h-113l-18 326l-146 -326h-114l-61 504h128l17 -342l147 342h118z" />
    <glyph glyph-name="x" unicode="x" horiz-adv-x="491" 
d="M260 370l111 134h131l-193 -242l109 -262h-125l-66 166l-137 -166h-131l219 274l-97 230h131z" />
    <glyph glyph-name="y" unicode="y" horiz-adv-x="493" 
d="M119 28l-82 476h125l50 -316l166 316h131l-394 -708h-125z" />
    <glyph glyph-name="z" unicode="z" horiz-adv-x="463" 
d="M267 398h-203l20 106h365l-9 -48l-271 -350h225l-20 -106h-390l8 48z" />
    <glyph glyph-name="braceleft" unicode="{" horiz-adv-x="348" 
d="M60 50l32 166c3 14 4 25 4 33c0 36 -19 47 -68 47l21 108c61 0 83 16 96 80l32 166c11 61 55 100 119 100h88l-21 -108h-27c-32 0 -42 -10 -49 -45l-29 -149c-11 -58 -42 -91 -93 -98c39 -6 58 -26 58 -61c0 -12 -1 -24 -4 -37l-29 -149c-1 -4 -1 -9 -1 -14
c0 -21 11 -31 34 -31h27l-21 -108h-88c-52 0 -83 27 -83 78c0 4 1 11 2 22z" />
    <glyph glyph-name="bar" unicode="|" horiz-adv-x="272" 
d="M91 -50v800h122v-800h-122z" />
    <glyph glyph-name="braceright" unicode="}" horiz-adv-x="348" 
d="M203 216l-32 -166c-12 -67 -49 -100 -112 -100h-94l21 108h26c32 0 42 10 49 45l29 149c15 72 43 91 94 98c-39 5 -59 25 -59 61c0 12 1 24 4 37l29 149c1 9 2 16 2 19c0 17 -11 26 -32 26h-30l21 108h88c55 0 84 -27 84 -75c0 -6 -1 -14 -3 -25l-32 -166
c-3 -17 -4 -28 -4 -32c0 -37 16 -48 68 -48l-21 -108c-60 0 -83 -19 -96 -80z" />
    <glyph glyph-name="asciitilde" unicode="~" horiz-adv-x="656" 
d="M111 249l-53 69c18 31 43 58 75 79c33 21 65 32 98 32c30 0 63 -10 100 -30c37 -19 66 -29 88 -29c33 0 66 17 99 51l53 -69c-18 -31 -43 -58 -76 -79c-32 -21 -64 -32 -97 -32c-29 0 -63 10 -100 29c-37 20 -67 30 -88 30c-33 0 -66 -17 -99 -51z" />
    <glyph glyph-name="uni00A0" unicode="&#xa0;" horiz-adv-x="221" 
 />
    <glyph glyph-name="exclamdown" unicode="&#xa1;" horiz-adv-x="369" 
d="M223 254l-61 -458h-164l117 458h108zM283 420c0 -47 -38 -84 -83 -84s-83 37 -83 84c0 45 36 82 83 82s83 -37 83 -82z" />
    <glyph glyph-name="cent" unicode="&#xa2;" horiz-adv-x="571" 
d="M409 285l99 -42c-49 -85 -114 -134 -195 -147l-28 -146h-123l30 150c-89 24 -140 103 -140 203c0 73 22 138 65 195s101 93 173 108l27 144h123l-28 -144c75 -15 122 -62 141 -139l-114 -42c-15 54 -50 81 -105 81c-47 0 -83 -20 -110 -59c-26 -39 -39 -84 -39 -135
c0 -76 30 -114 90 -114c49 0 93 29 134 87z" />
    <glyph glyph-name="sterling" unicode="&#xa3;" horiz-adv-x="565" 
d="M126 306h-83l22 116h46c-1 15 -2 30 -2 45c0 149 90 241 245 241c104 0 173 -55 196 -147l-114 -47c-14 52 -45 78 -92 78c-73 0 -115 -57 -115 -152v-18h172l-22 -116h-137c0 -7 -1 -19 -4 -38c-16 -76 -49 -116 -106 -159c34 19 65 28 94 28c15 0 32 -5 53 -15
s39 -15 53 -15c25 0 54 22 89 67l77 -71c-59 -83 -111 -111 -184 -111c-27 0 -55 6 -85 18c-30 13 -54 19 -71 19c-35 0 -76 -12 -123 -37l-53 76c85 67 144 133 144 217v21z" />
    <glyph glyph-name="currency" unicode="&#xa4;" horiz-adv-x="580" 
d="M109 42l-97 97l89 69c-33 60 -33 138 0 198l-89 69l97 97l69 -89c59 35 139 35 198 0l69 89l97 -97l-89 -69c33 -60 33 -138 0 -198l89 -69l-97 -97l-69 89c-59 -35 -139 -35 -198 0zM217 371c-15 -16 -22 -37 -22 -64s7 -48 22 -65c15 -16 35 -24 60 -24s45 8 60 24
c15 17 22 38 22 65s-7 48 -22 64c-15 17 -35 25 -60 25s-45 -8 -60 -25z" />
    <glyph glyph-name="yen" unicode="&#xa5;" horiz-adv-x="579" 
d="M195 406l-86 294h139l66 -273l178 273h140l-202 -294h91l-21 -108h-143l-14 -72h143l-21 -108h-143l-23 -118h-131l23 118h-143l21 108h143l14 72h-143l21 108h91z" />
    <glyph glyph-name="brokenbar" unicode="&#xa6;" horiz-adv-x="272" 
d="M91 -50v349h122v-349h-122zM213 750v-349h-122v349h122z" />
    <glyph glyph-name="section" unicode="&#xa7;" horiz-adv-x="589" 
d="M493 235c0 -64 -32 -116 -96 -155c15 -28 22 -58 22 -89c0 -62 -20 -111 -59 -148s-91 -55 -155 -55c-103 0 -173 59 -186 158l117 36c8 -51 43 -78 86 -78c40 0 74 30 74 79c0 25 -9 42 -25 58c-7 8 -32 24 -44 31l-32 19l-37 21c-61 36 -92 77 -92 149
c0 64 32 116 96 155c-15 28 -22 58 -22 89c0 62 20 111 59 148s91 55 155 55c103 0 173 -59 186 -158l-117 -36c-8 51 -43 78 -86 78c-40 0 -74 -30 -74 -79c-3 -24 11 -44 24 -58c8 -8 33 -24 45 -32l32 -18l37 -21c61 -36 92 -77 92 -149zM288 172l43 -23
c33 16 50 41 50 74c0 20 -10 38 -34 55c-12 9 -23 16 -33 22s-24 14 -43 24l-43 23c-33 -16 -50 -41 -50 -74c0 -20 10 -38 34 -55c12 -9 23 -16 33 -22s24 -14 43 -24z" />
    <glyph glyph-name="dieresis" unicode="&#xa8;" horiz-adv-x="361" 
d="M73 600c-27 27 -27 75 0 102s75 27 102 0s27 -75 0 -102s-75 -27 -102 0zM280 600c-27 27 -27 75 0 102s75 27 102 0s27 -75 0 -102s-75 -27 -102 0z" />
    <glyph glyph-name="copyright" unicode="&#xa9;" horiz-adv-x="898" 
d="M174 72c-73 75 -110 167 -110 278s37 203 110 278c74 75 166 112 275 112s201 -37 274 -112c74 -75 111 -167 111 -278s-37 -203 -111 -278c-73 -75 -165 -112 -274 -112s-201 37 -275 112zM251 554c-51 -53 -77 -121 -77 -204s26 -151 77 -204s117 -80 198 -80
s147 27 198 80s77 121 77 204s-26 151 -77 204s-117 80 -198 80s-147 -27 -198 -80zM537 294l97 -19c-7 -45 -27 -79 -62 -104s-76 -37 -123 -37c-56 0 -104 19 -143 57s-58 91 -58 159s19 121 58 159s87 57 143 57c47 0 88 -12 123 -37s55 -59 62 -104l-97 -19
c-14 43 -43 65 -88 65c-53 0 -91 -50 -91 -121s38 -121 91 -121c45 0 74 22 88 65z" />
    <glyph glyph-name="ordfeminine" unicode="&#xaa;" horiz-adv-x="427" 
d="M151 575l-82 19c12 65 71 110 151 110c111 0 166 -55 166 -166v-238h-81l-9 52c-32 -37 -73 -56 -122 -56c-68 0 -120 45 -120 120c0 79 69 130 169 130h66v17c0 39 -23 58 -69 58c-35 0 -58 -15 -69 -46zM156 416c0 -21 14 -38 41 -38c48 0 92 34 92 83v11h-66
c-41 0 -67 -21 -67 -56z" />
    <glyph glyph-name="guillemotleft" unicode="&#xab;" horiz-adv-x="725" 
d="M606 51l-267 218l16 88l352 212l-27 -143l-205 -121l155 -129zM296 51l-267 218l16 88l352 212l-27 -143l-205 -121l155 -129z" />
    <glyph glyph-name="logicalnot" unicode="&#xac;" horiz-adv-x="560" 
d="M377 295h-342v112h466v-265h-124v153z" />
    <glyph glyph-name="uni00AD" unicode="&#xad;" horiz-adv-x="505" 
d="M421 263h-373l21 108h373z" />
    <glyph glyph-name="registered" unicode="&#xae;" horiz-adv-x="898" 
d="M174 72c-73 75 -110 167 -110 278s37 203 110 278c74 75 166 112 275 112s201 -37 274 -112c74 -75 111 -167 111 -278s-37 -203 -111 -278c-73 -75 -165 -112 -274 -112s-201 37 -275 112zM251 554c-51 -53 -77 -121 -77 -204s26 -151 77 -204s117 -80 198 -80
s147 27 198 80s77 121 77 204s-26 151 -77 204s-117 80 -198 80s-147 -27 -198 -80zM632 137h-113l-109 182h-12v-182h-105v426h169c95 0 142 -41 142 -122c0 -67 -30 -106 -89 -117zM452 481h-54v-80h54c32 0 48 13 48 40s-16 40 -48 40z" />
    <glyph glyph-name="overscore" unicode="&#xaf;" horiz-adv-x="303" 
d="M330 618h-269l21 110h269z" />
    <glyph glyph-name="degree" unicode="&#xb0;" horiz-adv-x="360" 
d="M131 506c-23 23 -35 52 -35 87s12 63 35 86s52 35 87 35s64 -12 87 -35s35 -51 35 -86s-12 -64 -35 -87s-52 -34 -87 -34s-64 11 -87 34zM189 622c-13 -15 -13 -43 0 -58c15 -15 44 -15 57 0c15 15 15 43 0 58c-13 15 -42 15 -57 0z" />
    <glyph glyph-name="plusminus" unicode="&#xb1;" horiz-adv-x="687" 
d="M334 453l36 184h109l-36 -184h184l-21 -108h-184l-36 -184h-109l36 184h-184l21 108h184zM536 0h-476l21 108h476z" />
    <glyph glyph-name="uni00B2" unicode="&#xb2;" horiz-adv-x="419" 
d="M342 300h-274l6 35l188 185c23 23 34 45 34 66s-14 35 -35 35c-27 0 -47 -19 -59 -56l-84 23c23 73 80 116 153 116c72 0 120 -41 120 -104c0 -37 -20 -76 -59 -117l-99 -100h125z" />
    <glyph glyph-name="uni00B3" unicode="&#xb3;" horiz-adv-x="426" 
d="M85 424l80 10c5 -36 29 -55 58 -55c36 0 59 23 59 63c0 28 -17 49 -44 49c-12 0 -24 -3 -37 -10l-30 50l81 86h-116l16 83h247l-7 -35l-111 -114c55 0 94 -41 94 -102c0 -89 -60 -153 -157 -153c-79 0 -133 56 -133 128z" />
    <glyph glyph-name="acute" unicode="&#xb4;" horiz-adv-x="238" 
d="M135 560h-95l93 148h168z" />
    <glyph glyph-name="mu" unicode="&#xb5;" horiz-adv-x="594" 
d="M498 504v-504h-124v81c-41 -59 -93 -89 -156 -89c-11 0 -21 1 -31 3v-199h-124v708h124v-323c0 -55 24 -83 72 -83c64 0 115 78 115 205v201h124z" />
    <glyph glyph-name="mu" unicode="&#x3bc;" horiz-adv-x="594" 
d="M498 504v-504h-124v81c-41 -59 -93 -89 -156 -89c-11 0 -21 1 -31 3v-199h-124v708h124v-323c0 -55 24 -83 72 -83c64 0 115 78 115 205v201h124z" />
    <glyph glyph-name="paragraph" unicode="&#xb6;" horiz-adv-x="751" 
d="M72 458c0 78 25 138 76 179c51 42 117 63 199 63h389l-21 -108h-62l-154 -796h-121l154 796h-85l-154 -796h-121l87 450c-51 0 -95 21 -132 63s-55 92 -55 149z" />
    <glyph glyph-name="middot" unicode="&#xb7;" horiz-adv-x="303" 
d="M96 308c-32 32 -32 88 0 120s88 32 120 0s32 -88 0 -120s-88 -32 -120 0z" />
    <glyph glyph-name="cedilla" unicode="&#xb8;" horiz-adv-x="231" 
d="M102 -60h88l-122 -206l-133 66z" />
    <glyph glyph-name="uni00B9" unicode="&#xb9;" horiz-adv-x="341" 
d="M104 635l149 65h38l-77 -400h-90l54 278l-93 -39z" />
    <glyph glyph-name="ordmasculine" unicode="&#xba;" horiz-adv-x="430" 
d="M88 353c-36 39 -54 88 -54 147s18 108 54 146c36 39 85 58 147 58s111 -19 147 -58c36 -38 54 -87 54 -146s-18 -108 -54 -147c-36 -38 -85 -57 -147 -57s-111 19 -147 57zM162 586c-17 -23 -26 -52 -26 -86s9 -63 26 -86c18 -23 42 -35 73 -35s55 12 72 35
c18 23 27 52 27 86s-9 63 -27 86c-17 23 -41 35 -72 35s-55 -12 -73 -35z" />
    <glyph glyph-name="guillemotright" unicode="&#xbb;" horiz-adv-x="725" 
d="M113 569l267 -218l-16 -88l-352 -212l27 143l205 121l-155 129zM423 569l267 -218l-16 -88l-352 -212l27 143l205 121l-155 129z" />
    <glyph glyph-name="onequarter" unicode="&#xbc;" horiz-adv-x="899" 
d="M68 21l677 719l63 -61l-677 -719zM98 635l149 65h38l-77 -400h-90l54 278l-93 -39zM724 0h-90l12 65h-173l9 45l219 290h100l-49 -252h47l-16 -83h-47zM686 270l-87 -122h63z" />
    <glyph glyph-name="onehalf" unicode="&#xbd;" horiz-adv-x="949" 
d="M68 21l677 719l63 -61l-677 -719zM98 635l149 65h38l-77 -400h-90l54 278l-93 -39zM800 0h-274l6 35l188 185c23 23 34 45 34 66s-14 35 -35 35c-27 0 -47 -19 -59 -56l-84 23c23 73 80 116 153 116c72 0 120 -41 120 -104c0 -37 -20 -76 -59 -117l-99 -100h125z" />
    <glyph glyph-name="threequarters" unicode="&#xbe;" horiz-adv-x="971" 
d="M140 21l677 719l63 -61l-677 -719zM85 424l80 10c5 -36 29 -55 58 -55c36 0 59 23 59 63c0 28 -17 49 -44 49c-12 0 -24 -3 -37 -10l-30 50l81 86h-116l16 83h247l-7 -35l-111 -114c55 0 94 -41 94 -102c0 -89 -60 -153 -157 -153c-79 0 -133 56 -133 128zM777 0h-90
l12 65h-173l9 45l219 290h100l-49 -252h47l-16 -83h-47zM739 270l-87 -122h63z" />
    <glyph glyph-name="questiondown" unicode="&#xbf;" horiz-adv-x="457" 
d="M155 143l-85 30c39 79 90 110 163 110c76 0 126 -46 126 -114c0 -72 -37 -102 -117 -135l-94 -39c-33 -16 -49 -35 -49 -57c0 -28 19 -46 54 -46c44 0 77 27 99 81l109 -26c-32 -96 -113 -159 -220 -159c-97 0 -160 50 -160 142c0 63 33 108 98 133l124 47
c33 12 49 25 49 50c0 19 -13 33 -33 33c-23 0 -45 -17 -64 -50zM357 420c0 -47 -38 -84 -83 -84s-83 37 -83 84c0 45 36 82 83 82s83 -37 83 -82z" />
    <glyph glyph-name="Agrave" unicode="&#xc0;" horiz-adv-x="598" 
d="M539 0h-140l-18 165h-222l-84 -165h-141l374 700h128zM367 285l-27 247l-121 -247h148zM246 904h168l35 -148h-95z" />
    <glyph glyph-name="Aacute" unicode="&#xc1;" horiz-adv-x="598" 
d="M539 0h-140l-18 165h-222l-84 -165h-141l374 700h128zM367 285l-27 247l-121 -247h148zM392 756h-95l93 148h168z" />
    <glyph glyph-name="Acircumflex" unicode="&#xc2;" horiz-adv-x="598" 
d="M539 0h-140l-18 165h-222l-84 -165h-141l374 700h128zM367 285l-27 247l-121 -247h148zM310 762h-128l200 186h41l132 -186h-121l-50 66z" />
    <glyph glyph-name="Atilde" unicode="&#xc3;" horiz-adv-x="598" 
d="M539 0h-140l-18 165h-222l-84 -165h-141l374 700h128zM367 285l-27 247l-121 -247h148zM246 765l-61 55c33 53 87 87 138 87c23 0 47 -7 70 -21c23 -13 42 -20 57 -20c17 0 39 14 66 43l61 -55c-33 -53 -87 -87 -138 -87c-23 0 -47 7 -70 20c-23 14 -42 21 -57 21
c-17 0 -39 -14 -66 -43z" />
    <glyph glyph-name="Adieresis" unicode="&#xc4;" horiz-adv-x="598" 
d="M539 0h-140l-18 165h-222l-84 -165h-141l374 700h128zM367 285l-27 247l-121 -247h148zM246 796c-27 27 -27 75 0 102s75 27 102 0s27 -75 0 -102s-75 -27 -102 0zM453 796c-27 27 -27 75 0 102s75 27 102 0s27 -75 0 -102s-75 -27 -102 0z" />
    <glyph glyph-name="Aring" unicode="&#xc5;" horiz-adv-x="598" 
d="M539 0h-140l-18 165h-222l-84 -165h-141l374 700h128zM367 285l-27 247l-121 -247h148zM323 778c-19 19 -29 44 -29 73s10 54 29 73s44 29 74 29s55 -10 74 -29s29 -44 29 -73s-10 -54 -29 -73s-44 -29 -74 -29s-55 10 -74 29zM397 883c-20 0 -30 -11 -30 -32
s10 -32 30 -32s30 11 30 32s-10 32 -30 32z" />
    <glyph glyph-name="AE" unicode="&#xc6;" horiz-adv-x="854" 
d="M-66 0l442 700h490l-24 -120h-292l-28 -147h232l-24 -120h-232l-37 -193h302l-24 -120h-433l33 165h-160l-99 -165h-146zM409 527h-13l-145 -242h111z" />
    <glyph glyph-name="Ccedilla" unicode="&#xc7;" horiz-adv-x="694" 
d="M690 487l-123 -30c-19 91 -66 131 -150 131c-73 0 -132 -30 -179 -89s-70 -126 -70 -201c0 -121 61 -186 156 -186c83 0 138 40 189 136l115 -36c-64 -153 -166 -220 -327 -220c-75 0 -139 27 -190 81s-76 125 -76 214c0 115 38 214 114 297c77 83 174 124 291 124
c73 0 132 -21 175 -62s68 -94 75 -159zM300 -60h88l-122 -206l-133 66z" />
    <glyph glyph-name="Egrave" unicode="&#xc8;" horiz-adv-x="574" 
d="M26 0l137 700h423l-24 -120h-292l-28 -147h232l-24 -120h-232l-37 -193h302l-24 -120h-433zM262 904h168l35 -148h-95z" />
    <glyph glyph-name="Eacute" unicode="&#xc9;" horiz-adv-x="574" 
d="M26 0l137 700h423l-24 -120h-292l-28 -147h232l-24 -120h-232l-37 -193h302l-24 -120h-433zM380 756h-95l93 148h168z" />
    <glyph glyph-name="Ecircumflex" unicode="&#xca;" horiz-adv-x="574" 
d="M26 0l137 700h423l-24 -120h-292l-28 -147h232l-24 -120h-232l-37 -193h302l-24 -120h-433zM323 762h-128l200 186h41l132 -186h-121l-50 66z" />
    <glyph glyph-name="Edieresis" unicode="&#xcb;" horiz-adv-x="574" 
d="M26 0l137 700h423l-24 -120h-292l-28 -147h232l-24 -120h-232l-37 -193h302l-24 -120h-433zM239 796c-27 27 -27 75 0 102s75 27 102 0s27 -75 0 -102s-75 -27 -102 0zM446 796c-27 27 -27 75 0 102s75 27 102 0s27 -75 0 -102s-75 -27 -102 0z" />
    <glyph glyph-name="Igrave" unicode="&#xcc;" horiz-adv-x="320" 
d="M163 700h131l-137 -700h-131zM110 904h168l35 -148h-95z" />
    <glyph glyph-name="Iacute" unicode="&#xcd;" horiz-adv-x="320" 
d="M163 700h131l-137 -700h-131zM245 756h-95l93 148h168z" />
    <glyph glyph-name="Icircumflex" unicode="&#xce;" horiz-adv-x="320" 
d="M163 700h131l-137 -700h-131zM171 762h-128l200 186h41l132 -186h-121l-50 66z" />
    <glyph glyph-name="Idieresis" unicode="&#xcf;" horiz-adv-x="320" 
d="M163 700h131l-137 -700h-131zM94 796c-27 27 -27 75 0 102s75 27 102 0s27 -75 0 -102s-75 -27 -102 0zM301 796c-27 27 -27 75 0 102s75 27 102 0s27 -75 0 -102s-75 -27 -102 0z" />
    <glyph glyph-name="Eth" unicode="&#xd0;" horiz-adv-x="680" 
d="M239 0h-213l58 297h-66l21 106h66l58 297h199c83 0 150 -24 202 -73c53 -49 79 -118 79 -208c0 -130 -37 -232 -112 -307c-74 -75 -171 -112 -292 -112zM215 297l-34 -177h55c85 0 151 25 199 76c49 51 73 118 73 202c0 133 -71 182 -190 182h-48l-34 -177h118l-21 -106
h-118z" />
    <glyph glyph-name="Ntilde" unicode="&#xd1;" horiz-adv-x="712" 
d="M465 238l90 462h131l-137 -700h-138l-164 462l-90 -462h-131l137 700h138zM301 765l-61 55c33 53 87 87 138 87c23 0 47 -7 70 -21c23 -13 42 -20 57 -20c17 0 39 14 66 43l61 -55c-33 -53 -87 -87 -138 -87c-23 0 -47 7 -70 20c-23 14 -42 21 -57 21
c-17 0 -39 -14 -66 -43z" />
    <glyph glyph-name="Ograve" unicode="&#xd2;" horiz-adv-x="732" 
d="M309 -8c-77 0 -142 25 -195 76s-79 124 -79 218c0 116 32 213 97 290c73 88 169 132 289 132c77 0 142 -26 195 -77s79 -123 79 -217c0 -116 -32 -213 -97 -290c-73 -88 -169 -132 -289 -132zM319 112c65 0 120 27 166 80c50 59 75 129 75 212c0 116 -53 184 -149 184
c-65 0 -120 -27 -166 -80c-50 -59 -75 -129 -75 -212c0 -116 53 -184 149 -184zM283 904h168l35 -148h-95z" />
    <glyph glyph-name="Oacute" unicode="&#xd3;" horiz-adv-x="732" 
d="M309 -8c-77 0 -142 25 -195 76s-79 124 -79 218c0 116 32 213 97 290c73 88 169 132 289 132c77 0 142 -26 195 -77s79 -123 79 -217c0 -116 -32 -213 -97 -290c-73 -88 -169 -132 -289 -132zM319 112c65 0 120 27 166 80c50 59 75 129 75 212c0 116 -53 184 -149 184
c-65 0 -120 -27 -166 -80c-50 -59 -75 -129 -75 -212c0 -116 53 -184 149 -184zM429 756h-95l93 148h168z" />
    <glyph glyph-name="Ocircumflex" unicode="&#xd4;" horiz-adv-x="732" 
d="M309 -8c-77 0 -142 25 -195 76s-79 124 -79 218c0 116 32 213 97 290c73 88 169 132 289 132c77 0 142 -26 195 -77s79 -123 79 -217c0 -116 -32 -213 -97 -290c-73 -88 -169 -132 -289 -132zM319 112c65 0 120 27 166 80c50 59 75 129 75 212c0 116 -53 184 -149 184
c-65 0 -120 -27 -166 -80c-50 -59 -75 -129 -75 -212c0 -116 53 -184 149 -184zM365 762h-128l200 186h41l132 -186h-121l-50 66z" />
    <glyph glyph-name="Otilde" unicode="&#xd5;" horiz-adv-x="732" 
d="M309 -8c-77 0 -142 25 -195 76s-79 124 -79 218c0 116 32 213 97 290c73 88 169 132 289 132c77 0 142 -26 195 -77s79 -123 79 -217c0 -116 -32 -213 -97 -290c-73 -88 -169 -132 -289 -132zM319 112c65 0 120 27 166 80c50 59 75 129 75 212c0 116 -53 184 -149 184
c-65 0 -120 -27 -166 -80c-50 -59 -75 -129 -75 -212c0 -116 53 -184 149 -184zM310 765l-61 55c33 53 87 87 138 87c23 0 47 -7 70 -21c23 -13 42 -20 57 -20c17 0 39 14 66 43l61 -55c-33 -53 -87 -87 -138 -87c-23 0 -47 7 -70 20c-23 14 -42 21 -57 21
c-17 0 -39 -14 -66 -43z" />
    <glyph glyph-name="Odieresis" unicode="&#xd6;" horiz-adv-x="732" 
d="M309 -8c-77 0 -142 25 -195 76s-79 124 -79 218c0 116 32 213 97 290c73 88 169 132 289 132c77 0 142 -26 195 -77s79 -123 79 -217c0 -116 -32 -213 -97 -290c-73 -88 -169 -132 -289 -132zM319 112c65 0 120 27 166 80c50 59 75 129 75 212c0 116 -53 184 -149 184
c-65 0 -120 -27 -166 -80c-50 -59 -75 -129 -75 -212c0 -116 53 -184 149 -184zM301 796c-27 27 -27 75 0 102s75 27 102 0s27 -75 0 -102s-75 -27 -102 0zM508 796c-27 27 -27 75 0 102s75 27 102 0s27 -75 0 -102s-75 -27 -102 0z" />
    <glyph glyph-name="multiply" unicode="&#xd7;" horiz-adv-x="582" 
d="M367 317l159 -158l-77 -77l-158 159l-158 -159l-77 77l159 158l-159 158l77 77l158 -159l158 159l77 -77z" />
    <glyph glyph-name="Oslash" unicode="&#xd8;" horiz-adv-x="732" 
d="M309 -8c-66 0 -122 18 -168 53l-89 -93l-73 70l95 99c-26 45 -39 100 -39 165c0 116 32 213 97 290c73 88 169 132 289 132c64 0 120 -18 167 -53l89 93l73 -70l-95 -99c27 -47 40 -102 40 -165c0 -116 -32 -213 -97 -290c-73 -88 -169 -132 -289 -132zM319 112
c65 0 120 27 166 80c50 59 75 129 75 212c0 23 -3 46 -8 69l-321 -335c23 -17 53 -26 88 -26zM170 296c0 -27 2 -49 7 -68l321 334c-23 17 -52 26 -87 26c-65 0 -120 -27 -166 -80c-50 -59 -75 -129 -75 -212z" />
    <glyph glyph-name="Ugrave" unicode="&#xd9;" horiz-adv-x="681" 
d="M530 700h132l-84 -434c-39 -199 -142 -274 -310 -274c-125 0 -210 74 -210 203c0 21 3 45 8 71l84 434h131l-84 -436c-4 -21 -6 -39 -6 -53c0 -63 35 -99 100 -99c83 0 135 51 155 152zM284 904h168l35 -148h-95z" />
    <glyph glyph-name="Uacute" unicode="&#xda;" horiz-adv-x="681" 
d="M530 700h132l-84 -434c-39 -199 -142 -274 -310 -274c-125 0 -210 74 -210 203c0 21 3 45 8 71l84 434h131l-84 -436c-4 -21 -6 -39 -6 -53c0 -63 35 -99 100 -99c83 0 135 51 155 152zM418 756h-95l93 148h168z" />
    <glyph glyph-name="Ucircumflex" unicode="&#xdb;" horiz-adv-x="681" 
d="M530 700h132l-84 -434c-39 -199 -142 -274 -310 -274c-125 0 -210 74 -210 203c0 21 3 45 8 71l84 434h131l-84 -436c-4 -21 -6 -39 -6 -53c0 -63 35 -99 100 -99c83 0 135 51 155 152zM356 762h-128l200 186h41l132 -186h-121l-50 66z" />
    <glyph glyph-name="Udieresis" unicode="&#xdc;" horiz-adv-x="681" 
d="M530 700h132l-84 -434c-39 -199 -142 -274 -310 -274c-125 0 -210 74 -210 203c0 21 3 45 8 71l84 434h131l-84 -436c-4 -21 -6 -39 -6 -53c0 -63 35 -99 100 -99c83 0 135 51 155 152zM273 796c-27 27 -27 75 0 102s75 27 102 0s27 -75 0 -102s-75 -27 -102 0zM480 796
c-27 27 -27 75 0 102s75 27 102 0s27 -75 0 -102s-75 -27 -102 0z" />
    <glyph glyph-name="Yacute" unicode="&#xdd;" horiz-adv-x="508" 
d="M173 298l-125 402h138l73 -272l182 272h140l-278 -402l-57 -298h-131zM327 756h-95l93 148h168z" />
    <glyph glyph-name="Thorn" unicode="&#xde;" horiz-adv-x="595" 
d="M296 137h-112l-27 -137h-131l137 700h131l-27 -137h114c120 0 196 -65 196 -185c0 -75 -26 -134 -78 -177c-51 -43 -119 -64 -203 -64zM243 443l-36 -186h110c75 0 125 42 125 110c0 48 -29 76 -81 76h-118z" />
    <glyph glyph-name="germandbls" unicode="&#xdf;" horiz-adv-x="584" 
d="M97 326h-51l21 112h52l12 62c27 139 106 208 239 208c104 0 162 -58 162 -151c0 -79 -36 -144 -101 -165c24 -6 46 -24 66 -53c21 -29 31 -64 31 -105c0 -161 -85 -242 -255 -242c-33 0 -60 3 -80 8l21 108c27 -5 46 -8 58 -8c89 0 133 38 133 126c0 63 -36 100 -101 100
h-32l22 112h20c60 0 102 35 102 94c0 47 -21 70 -64 70c-49 0 -87 -35 -100 -99l-98 -503h-120z" />
    <glyph glyph-name="agrave" unicode="&#xe0;" horiz-adv-x="603" 
d="M310 512c49 0 93 -23 112 -51l8 43h125l-97 -504h-125l10 52c-21 -29 -77 -60 -134 -60c-60 0 -106 19 -139 57c-32 39 -48 88 -48 147c0 94 25 170 76 228c51 59 121 88 212 88zM155 219c0 -76 37 -121 92 -121c47 0 84 19 111 58s40 85 40 139c0 71 -36 111 -92 111
c-47 0 -84 -20 -111 -59s-40 -81 -40 -128zM197 708h168l35 -148h-95z" />
    <glyph glyph-name="aacute" unicode="&#xe1;" horiz-adv-x="603" 
d="M310 512c49 0 93 -23 112 -51l8 43h125l-97 -504h-125l10 52c-21 -29 -77 -60 -134 -60c-60 0 -106 19 -139 57c-32 39 -48 88 -48 147c0 94 25 170 76 228c51 59 121 88 212 88zM155 219c0 -76 37 -121 92 -121c47 0 84 19 111 58s40 85 40 139c0 71 -36 111 -92 111
c-47 0 -84 -20 -111 -59s-40 -81 -40 -128zM331 560h-95l93 148h168z" />
    <glyph glyph-name="acircumflex" unicode="&#xe2;" horiz-adv-x="603" 
d="M310 512c49 0 93 -23 112 -51l8 43h125l-97 -504h-125l10 52c-21 -29 -77 -60 -134 -60c-60 0 -106 19 -139 57c-32 39 -48 88 -48 147c0 94 25 170 76 228c51 59 121 88 212 88zM155 219c0 -76 37 -121 92 -121c47 0 84 19 111 58s40 85 40 139c0 71 -36 111 -92 111
c-47 0 -84 -20 -111 -59s-40 -81 -40 -128zM291 566h-128l200 186h41l132 -186h-121l-50 66z" />
    <glyph glyph-name="atilde" unicode="&#xe3;" horiz-adv-x="603" 
d="M310 512c49 0 93 -23 112 -51l8 43h125l-97 -504h-125l10 52c-21 -29 -77 -60 -134 -60c-60 0 -106 19 -139 57c-32 39 -48 88 -48 147c0 94 25 170 76 228c51 59 121 88 212 88zM155 219c0 -76 37 -121 92 -121c47 0 84 19 111 58s40 85 40 139c0 71 -36 111 -92 111
c-47 0 -84 -20 -111 -59s-40 -81 -40 -128zM215 569l-61 55c33 53 87 87 138 87c23 0 47 -7 70 -21c23 -13 42 -20 57 -20c17 0 39 14 66 43l61 -55c-33 -53 -87 -87 -138 -87c-23 0 -47 7 -70 20c-23 14 -42 21 -57 21c-17 0 -39 -14 -66 -43z" />
    <glyph glyph-name="adieresis" unicode="&#xe4;" horiz-adv-x="603" 
d="M310 512c49 0 93 -23 112 -51l8 43h125l-97 -504h-125l10 52c-21 -29 -77 -60 -134 -60c-60 0 -106 19 -139 57c-32 39 -48 88 -48 147c0 94 25 170 76 228c51 59 121 88 212 88zM155 219c0 -76 37 -121 92 -121c47 0 84 19 111 58s40 85 40 139c0 71 -36 111 -92 111
c-47 0 -84 -20 -111 -59s-40 -81 -40 -128zM205 600c-27 27 -27 75 0 102s75 27 102 0s27 -75 0 -102s-75 -27 -102 0zM412 600c-27 27 -27 75 0 102s75 27 102 0s27 -75 0 -102s-75 -27 -102 0z" />
    <glyph glyph-name="aring" unicode="&#xe5;" horiz-adv-x="603" 
d="M310 512c49 0 93 -23 112 -51l8 43h125l-97 -504h-125l10 52c-21 -29 -77 -60 -134 -60c-60 0 -106 19 -139 57c-32 39 -48 88 -48 147c0 94 25 170 76 228c51 59 121 88 212 88zM155 219c0 -76 37 -121 92 -121c47 0 84 19 111 58s40 85 40 139c0 71 -36 111 -92 111
c-47 0 -84 -20 -111 -59s-40 -81 -40 -128zM274 582c-19 19 -29 44 -29 73s10 54 29 73s44 29 74 29s55 -10 74 -29s29 -44 29 -73s-10 -54 -29 -73s-44 -29 -74 -29s-55 10 -74 29zM348 687c-20 0 -30 -11 -30 -32s10 -32 30 -32s30 11 30 32s-10 32 -30 32z" />
    <glyph glyph-name="ae" unicode="&#xe6;" horiz-adv-x="897" 
d="M847 263l-10 -51h-359c-1 -4 -1 -10 -1 -19c0 -52 37 -95 100 -95c53 0 99 29 138 86l99 -51c-65 -97 -137 -141 -248 -141c-85 0 -147 32 -185 97c-52 -63 -122 -97 -187 -97c-109 0 -172 54 -172 145c0 57 21 100 63 129c43 29 94 44 155 44h126l4 22c1 8 2 14 2 18
c0 37 -33 56 -77 56s-77 -19 -98 -58l-104 24c32 93 103 140 212 140c74 0 126 -21 156 -63c53 42 115 63 188 63c64 0 114 -19 149 -57s53 -86 53 -145c0 -19 -1 -35 -4 -47zM347 212h-92c-55 0 -92 -12 -92 -63c0 -33 23 -53 60 -53c59 0 109 42 122 106zM633 406
c-60 0 -111 -41 -134 -96h229c-4 64 -36 96 -95 96z" />
    <glyph glyph-name="ccedilla" unicode="&#xe7;" horiz-adv-x="559" 
d="M379 185l99 -42c-61 -107 -139 -151 -254 -151c-63 0 -112 20 -148 60s-54 90 -54 151c0 84 28 156 84 217s129 92 219 92c108 0 174 -48 198 -145l-114 -42c-15 54 -50 81 -105 81c-47 0 -83 -20 -110 -59c-26 -39 -39 -84 -39 -135c0 -76 30 -114 90 -114
c49 0 93 29 134 87zM215 -60h88l-122 -206l-133 66z" />
    <glyph glyph-name="egrave" unicode="&#xe8;" horiz-adv-x="567" 
d="M517 263l-10 -51h-362v-16c0 -55 39 -98 102 -98c53 0 99 29 138 86l99 -51c-65 -97 -137 -141 -248 -141c-63 0 -115 20 -156 60c-40 40 -60 94 -60 163c0 81 28 150 83 209s127 88 216 88c64 0 114 -19 149 -57s53 -86 53 -145c0 -19 -1 -35 -4 -47zM303 406
c-60 0 -111 -41 -134 -96h230c-4 64 -36 96 -96 96zM193 708h168l35 -148h-95z" />
    <glyph glyph-name="eacute" unicode="&#xe9;" horiz-adv-x="567" 
d="M517 263l-10 -51h-362v-16c0 -55 39 -98 102 -98c53 0 99 29 138 86l99 -51c-65 -97 -137 -141 -248 -141c-63 0 -115 20 -156 60c-40 40 -60 94 -60 163c0 81 28 150 83 209s127 88 216 88c64 0 114 -19 149 -57s53 -86 53 -145c0 -19 -1 -35 -4 -47zM303 406
c-60 0 -111 -41 -134 -96h230c-4 64 -36 96 -96 96zM318 560h-95l93 148h168z" />
    <glyph glyph-name="ecircumflex" unicode="&#xea;" horiz-adv-x="567" 
d="M517 263l-10 -51h-362v-16c0 -55 39 -98 102 -98c53 0 99 29 138 86l99 -51c-65 -97 -137 -141 -248 -141c-63 0 -115 20 -156 60c-40 40 -60 94 -60 163c0 81 28 150 83 209s127 88 216 88c64 0 114 -19 149 -57s53 -86 53 -145c0 -19 -1 -35 -4 -47zM303 406
c-60 0 -111 -41 -134 -96h230c-4 64 -36 96 -96 96zM268 566h-128l200 186h41l132 -186h-121l-50 66z" />
    <glyph glyph-name="edieresis" unicode="&#xeb;" horiz-adv-x="567" 
d="M517 263l-10 -51h-362v-16c0 -55 39 -98 102 -98c53 0 99 29 138 86l99 -51c-65 -97 -137 -141 -248 -141c-63 0 -115 20 -156 60c-40 40 -60 94 -60 163c0 81 28 150 83 209s127 88 216 88c64 0 114 -19 149 -57s53 -86 53 -145c0 -19 -1 -35 -4 -47zM303 406
c-60 0 -111 -41 -134 -96h230c-4 64 -36 96 -96 96zM196 600c-27 27 -27 75 0 102s75 27 102 0s27 -75 0 -102s-75 -27 -102 0zM403 600c-27 27 -27 75 0 102s75 27 102 0s27 -75 0 -102s-75 -27 -102 0z" />
    <glyph glyph-name="igrave" unicode="&#xec;" horiz-adv-x="288" 
d="M18 0l98 504h125l-98 -504h-125zM62 708h168l35 -148h-95z" />
    <glyph glyph-name="iacute" unicode="&#xed;" horiz-adv-x="288" 
d="M18 0l98 504h125l-98 -504h-125zM207 560h-95l93 148h168z" />
    <glyph glyph-name="icircumflex" unicode="&#xee;" horiz-adv-x="288" 
d="M18 0l98 504h125l-98 -504h-125zM125 566h-128l200 186h41l132 -186h-121l-50 66z" />
    <glyph glyph-name="idieresis" unicode="&#xef;" horiz-adv-x="288" 
d="M18 0l98 504h125l-98 -504h-125zM50 600c-27 27 -27 75 0 102s75 27 102 0s27 -75 0 -102s-75 -27 -102 0zM257 600c-27 27 -27 75 0 102s75 27 102 0s27 -75 0 -102s-75 -27 -102 0z" />
    <glyph glyph-name="eth" unicode="&#xf0;" horiz-adv-x="593" 
d="M340 581l-41 -47l-65 53l37 42c-35 20 -61 33 -78 39l79 91c27 -13 52 -27 76 -42l43 48l66 -52l-42 -47c81 -69 124 -185 124 -309c0 -99 -21 -182 -68 -253c-45 -69 -129 -112 -238 -112c-65 0 -117 20 -155 61c-37 41 -56 92 -56 151c0 89 28 163 84 221
c57 58 130 87 221 87c29 0 55 -7 78 -20c-14 35 -36 64 -65 89zM307 406c-47 0 -85 -19 -113 -57c-27 -38 -41 -80 -41 -126c0 -81 33 -125 94 -125c46 0 83 19 111 56s42 81 42 130c0 76 -30 122 -93 122z" />
    <glyph glyph-name="ntilde" unicode="&#xf1;" horiz-adv-x="585" 
d="M18 0l98 504h125l-16 -81c47 59 103 89 169 89c81 0 126 -42 126 -113c0 -13 -1 -26 -4 -39l-70 -360h-125l63 323c2 11 3 21 3 29c0 35 -21 54 -54 54c-64 0 -126 -77 -151 -205l-39 -201h-125zM208 569l-61 55c33 53 87 87 138 87c23 0 47 -7 70 -21
c23 -13 42 -20 57 -20c17 0 39 14 66 43l61 -55c-33 -53 -87 -87 -138 -87c-23 0 -47 7 -70 20c-23 14 -42 21 -57 21c-17 0 -39 -14 -66 -43z" />
    <glyph glyph-name="ograve" unicode="&#xf2;" horiz-adv-x="588" 
d="M22 205c0 96 29 172 86 227c61 59 119 80 206 80c67 0 120 -20 160 -61c40 -40 60 -91 60 -152c0 -96 -29 -172 -86 -227c-61 -59 -119 -80 -206 -80c-67 0 -120 20 -160 60c-40 41 -60 92 -60 153zM303 406c-47 0 -84 -18 -111 -54c-25 -31 -37 -74 -37 -128
c0 -77 38 -126 98 -126c47 0 84 18 111 54c25 31 37 74 37 128c0 77 -38 126 -98 126zM186 708h168l35 -148h-95z" />
    <glyph glyph-name="oacute" unicode="&#xf3;" horiz-adv-x="588" 
d="M22 205c0 96 29 172 86 227c61 59 119 80 206 80c67 0 120 -20 160 -61c40 -40 60 -91 60 -152c0 -96 -29 -172 -86 -227c-61 -59 -119 -80 -206 -80c-67 0 -120 20 -160 60c-40 41 -60 92 -60 153zM303 406c-47 0 -84 -18 -111 -54c-25 -31 -37 -74 -37 -128
c0 -77 38 -126 98 -126c47 0 84 18 111 54c25 31 37 74 37 128c0 77 -38 126 -98 126zM321 560h-95l93 148h168z" />
    <glyph glyph-name="ocircumflex" unicode="&#xf4;" horiz-adv-x="588" 
d="M22 205c0 96 29 172 86 227c61 59 119 80 206 80c67 0 120 -20 160 -61c40 -40 60 -91 60 -152c0 -96 -29 -172 -86 -227c-61 -59 -119 -80 -206 -80c-67 0 -120 20 -160 60c-40 41 -60 92 -60 153zM303 406c-47 0 -84 -18 -111 -54c-25 -31 -37 -74 -37 -128
c0 -77 38 -126 98 -126c47 0 84 18 111 54c25 31 37 74 37 128c0 77 -38 126 -98 126zM258 566h-128l200 186h41l132 -186h-121l-50 66z" />
    <glyph glyph-name="otilde" unicode="&#xf5;" horiz-adv-x="588" 
d="M22 205c0 96 29 172 86 227c61 59 119 80 206 80c67 0 120 -20 160 -61c40 -40 60 -91 60 -152c0 -96 -29 -172 -86 -227c-61 -59 -119 -80 -206 -80c-67 0 -120 20 -160 60c-40 41 -60 92 -60 153zM303 406c-47 0 -84 -18 -111 -54c-25 -31 -37 -74 -37 -128
c0 -77 38 -126 98 -126c47 0 84 18 111 54c25 31 37 74 37 128c0 77 -38 126 -98 126zM201 569l-61 55c33 53 87 87 138 87c23 0 47 -7 70 -21c23 -13 42 -20 57 -20c17 0 39 14 66 43l61 -55c-33 -53 -87 -87 -138 -87c-23 0 -47 7 -70 20c-23 14 -42 21 -57 21
c-17 0 -39 -14 -66 -43z" />
    <glyph glyph-name="odieresis" unicode="&#xf6;" horiz-adv-x="588" 
d="M22 205c0 96 29 172 86 227c61 59 119 80 206 80c67 0 120 -20 160 -61c40 -40 60 -91 60 -152c0 -96 -29 -172 -86 -227c-61 -59 -119 -80 -206 -80c-67 0 -120 20 -160 60c-40 41 -60 92 -60 153zM303 406c-47 0 -84 -18 -111 -54c-25 -31 -37 -74 -37 -128
c0 -77 38 -126 98 -126c47 0 84 18 111 54c25 31 37 74 37 128c0 77 -38 126 -98 126zM194 600c-27 27 -27 75 0 102s75 27 102 0s27 -75 0 -102s-75 -27 -102 0zM401 600c-27 27 -27 75 0 102s75 27 102 0s27 -75 0 -102s-75 -27 -102 0z" />
    <glyph glyph-name="divide" unicode="&#xf7;" horiz-adv-x="601" 
d="M243 64c-32 32 -32 88 0 120s88 32 120 0s32 -88 0 -120s-88 -32 -120 0zM243 446c-32 32 -32 88 0 120s88 32 120 0s32 -88 0 -120s-88 -32 -120 0zM541 261h-476v108h476v-108z" />
    <glyph glyph-name="oslash" unicode="&#xf8;" horiz-adv-x="588" 
d="M22 206c0 95 29 171 86 226c31 29 62 50 93 62c32 12 70 18 113 18s82 -10 117 -29l83 85l74 -69l-84 -86c20 -35 30 -73 30 -114c0 -96 -29 -172 -86 -227c-61 -59 -119 -80 -206 -80c-47 0 -87 10 -120 29l-83 -85l-74 69l86 88c-19 33 -29 70 -29 113zM401 280
c0 7 -1 15 -2 26l-191 -197c13 -7 28 -11 45 -11c47 0 84 18 111 54c25 31 37 74 37 128zM303 406c-47 0 -84 -18 -111 -54c-25 -31 -37 -74 -37 -128c0 -11 0 -19 1 -24l190 196c-15 7 -29 10 -43 10z" />
    <glyph glyph-name="ugrave" unicode="&#xf9;" horiz-adv-x="589" 
d="M543 504l-98 -504h-125l16 81c-47 -59 -103 -89 -169 -89c-81 0 -126 42 -126 113c0 13 1 26 4 39l70 360h125l-63 -323c-2 -11 -3 -21 -3 -29c0 -35 19 -54 54 -54c64 0 126 77 151 205l39 201h125zM193 708h168l35 -148h-95z" />
    <glyph glyph-name="uacute" unicode="&#xfa;" horiz-adv-x="589" 
d="M543 504l-98 -504h-125l16 81c-47 -59 -103 -89 -169 -89c-81 0 -126 42 -126 113c0 13 1 26 4 39l70 360h125l-63 -323c-2 -11 -3 -21 -3 -29c0 -35 19 -54 54 -54c64 0 126 77 151 205l39 201h125zM355 560h-95l93 148h168z" />
    <glyph glyph-name="ucircumflex" unicode="&#xfb;" horiz-adv-x="589" 
d="M543 504l-98 -504h-125l16 81c-47 -59 -103 -89 -169 -89c-81 0 -126 42 -126 113c0 13 1 26 4 39l70 360h125l-63 -323c-2 -11 -3 -21 -3 -29c0 -35 19 -54 54 -54c64 0 126 77 151 205l39 201h125zM279 566h-128l200 186h41l132 -186h-121l-50 66z" />
    <glyph glyph-name="udieresis" unicode="&#xfc;" horiz-adv-x="589" 
d="M543 504l-98 -504h-125l16 81c-47 -59 -103 -89 -169 -89c-81 0 -126 42 -126 113c0 13 1 26 4 39l70 360h125l-63 -323c-2 -11 -3 -21 -3 -29c0 -35 19 -54 54 -54c64 0 126 77 151 205l39 201h125zM200 600c-27 27 -27 75 0 102s75 27 102 0s27 -75 0 -102
s-75 -27 -102 0zM407 600c-27 27 -27 75 0 102s75 27 102 0s27 -75 0 -102s-75 -27 -102 0z" />
    <glyph glyph-name="yacute" unicode="&#xfd;" horiz-adv-x="493" 
d="M119 28l-82 476h125l50 -316l166 316h131l-394 -708h-125zM270 560h-95l93 148h168z" />
    <glyph glyph-name="thorn" unicode="&#xfe;" horiz-adv-x="606" 
d="M552 303c0 -91 -24 -165 -72 -224c-48 -58 -115 -87 -202 -87c-59 0 -105 29 -122 60l-49 -256h-125l176 912h125l-49 -250c39 36 83 54 134 54c111 0 184 -77 184 -209zM275 98c45 0 80 20 105 59c26 39 39 83 39 130c0 76 -35 119 -92 119c-45 0 -81 -19 -108 -56
s-41 -81 -41 -134c0 -75 36 -118 97 -118z" />
    <glyph glyph-name="ydieresis" unicode="&#xff;" horiz-adv-x="493" 
d="M119 28l-82 476h125l50 -316l166 316h131l-394 -708h-125zM139 600c-27 27 -27 75 0 102s75 27 102 0s27 -75 0 -102s-75 -27 -102 0zM346 600c-27 27 -27 75 0 102s75 27 102 0s27 -75 0 -102s-75 -27 -102 0z" />
    <glyph glyph-name="dotlessi" unicode="&#x131;" horiz-adv-x="288" 
d="M18 0l98 504h125l-98 -504h-125z" />
    <glyph glyph-name="Lslash" unicode="&#x141;" horiz-adv-x="535" 
d="M114 366l66 334h131l-51 -261l98 49l34 -95l-156 -78l-38 -195h286l-24 -120h-417l47 242l-71 -36l-34 95z" />
    <glyph glyph-name="lslash" unicode="&#x142;" horiz-adv-x="348" 
d="M122 391l63 317h125l-49 -249l54 27l34 -95l-112 -56l-66 -335h-125l52 267l-53 -26l-34 95z" />
    <glyph glyph-name="OE" unicode="&#x152;" horiz-adv-x="1042" 
d="M617 630l14 70h423l-24 -120h-292l-28 -147h232l-24 -120h-232l-37 -193h302l-24 -120h-433l8 40c-54 -32 -118 -48 -193 -48c-77 0 -142 25 -195 76s-79 124 -79 218c0 116 32 213 97 290c73 88 169 132 289 132c79 0 145 -26 196 -78zM319 112c65 0 120 27 166 80
c50 59 75 129 75 212c0 116 -53 184 -149 184c-65 0 -120 -27 -166 -80c-50 -59 -75 -129 -75 -212c0 -116 53 -184 149 -184z" />
    <glyph glyph-name="oe" unicode="&#x153;" horiz-adv-x="946" 
d="M896 263l-10 -51h-359c-1 -4 -1 -10 -1 -19c0 -52 37 -95 100 -95c53 0 99 29 138 86l99 -51c-65 -97 -137 -141 -248 -141c-74 0 -131 25 -171 76c-54 -51 -121 -76 -202 -76c-67 0 -120 20 -160 60c-40 41 -60 92 -60 153c0 96 29 172 86 227c61 59 119 80 206 80
c77 0 136 -27 177 -80c55 53 124 80 207 80c64 0 114 -19 149 -57s53 -86 53 -145c0 -19 -1 -35 -4 -47zM303 406c-47 0 -84 -18 -111 -54c-25 -31 -37 -74 -37 -128c0 -77 38 -126 98 -126c47 0 84 18 111 54c25 31 37 74 37 128c0 77 -38 126 -98 126zM682 406
c-60 0 -111 -41 -134 -96h229c-4 64 -36 96 -95 96z" />
    <glyph glyph-name="Scaron" unicode="&#x160;" horiz-adv-x="540" 
d="M512 577l-108 -60c-19 47 -50 71 -91 71c-44 0 -73 -27 -73 -72c0 -41 31 -69 100 -104c49 -25 85 -50 107 -77c23 -26 34 -64 34 -114c0 -75 -25 -132 -75 -172c-53 -43 -105 -57 -190 -57c-56 0 -104 20 -145 60c-40 40 -60 86 -60 138l111 60c8 -85 48 -138 125 -138
c60 0 99 34 99 94c0 52 -28 75 -99 114c-89 48 -138 101 -138 192c0 59 20 106 60 142c41 36 93 54 156 54c45 0 85 -13 119 -38c35 -25 57 -56 68 -93zM432 948h128l-200 -186h-41l-132 186h121l50 -66z" />
    <glyph glyph-name="scaron" unicode="&#x161;" horiz-adv-x="459" 
d="M262 512c34 0 66 -8 96 -25c30 -16 50 -36 61 -61l-89 -64c-17 29 -42 44 -77 44c-28 0 -49 -17 -49 -45c0 -13 6 -25 21 -34c7 -5 14 -9 20 -12l46 -20c64 -29 104 -65 104 -128c0 -117 -78 -175 -198 -175c-55 0 -98 15 -130 45c-32 31 -52 65 -60 103l106 44
c14 -57 47 -86 98 -86c36 0 64 17 64 52c0 27 -23 45 -86 74c-69 33 -103 77 -103 134c0 95 67 154 176 154zM372 752h128l-200 -186h-41l-132 186h121l50 -66z" />
    <glyph glyph-name="Ydieresis" unicode="&#x178;" horiz-adv-x="508" 
d="M173 298l-125 402h138l73 -272l182 272h140l-278 -402l-57 -298h-131zM181 796c-27 27 -27 75 0 102s75 27 102 0s27 -75 0 -102s-75 -27 -102 0zM388 796c-27 27 -27 75 0 102s75 27 102 0s27 -75 0 -102s-75 -27 -102 0z" />
    <glyph glyph-name="Zcaron" unicode="&#x17d;" horiz-adv-x="577" 
d="M385 580h-287l24 120h467l-12 -60l-401 -520h316l-24 -120h-497l12 60zM459 948h128l-200 -186h-41l-132 186h121l50 -66z" />
    <glyph glyph-name="zcaron" unicode="&#x17e;" horiz-adv-x="463" 
d="M267 398h-203l20 106h365l-9 -48l-271 -350h225l-20 -106h-390l8 48zM372 752h128l-200 -186h-41l-132 186h121l50 -66z" />
    <glyph glyph-name="florin" unicode="&#x192;" horiz-adv-x="435" 
d="M184 398h-79l21 106h80l5 26c23 119 100 178 208 178c39 0 69 -7 90 -20l-46 -100c-20 9 -39 14 -57 14c-38 0 -61 -21 -70 -63l-6 -35h108l-21 -106h-108l-85 -432c-23 -119 -100 -178 -208 -178c-39 0 -69 7 -90 20l46 100c20 -9 39 -14 57 -14c38 0 61 21 70 63z" />
    <glyph glyph-name="circumflex" unicode="&#x2c6;" horiz-adv-x="423" 
d="M190 566h-128l200 186h41l132 -186h-121l-50 66z" />
    <glyph glyph-name="caron" unicode="&#x2c7;" horiz-adv-x="400" 
d="M324 752h128l-200 -186h-41l-132 186h121l50 -66z" />
    <glyph glyph-name="breve" unicode="&#x2d8;" horiz-adv-x="248" 
d="M65 700h91c-1 -2 -1 -4 -1 -6c0 -15 8 -22 23 -22c16 0 29 12 32 28h91c-11 -64 -67 -109 -139 -109c-63 0 -99 36 -99 88c0 5 1 12 2 21z" />
    <glyph glyph-name="dotaccent" unicode="&#x2d9;" horiz-adv-x="288" 
d="M145 592c-31 31 -31 83 0 114s83 31 114 0s31 -83 0 -114s-83 -31 -114 0z" />
    <glyph glyph-name="ring" unicode="&#x2da;" horiz-adv-x="204" 
d="M82 582c-19 19 -29 44 -29 73s10 54 29 73s44 29 74 29s55 -10 74 -29s29 -44 29 -73s-10 -54 -29 -73s-44 -29 -74 -29s-55 10 -74 29zM156 687c-20 0 -30 -11 -30 -32s10 -32 30 -32s30 11 30 32s-10 32 -30 32z" />
    <glyph glyph-name="ogonek" unicode="&#x2db;" horiz-adv-x="238" 
d="M43 -60h80l-13 -10c-16 -12 -18 -13 -33 -25c-16 -15 -28 -31 -28 -47c0 -29 32 -37 81 22l45 -48c-39 -51 -84 -77 -133 -77c-52 0 -82 30 -82 79c0 41 28 76 83 106z" />
    <glyph glyph-name="tilde" unicode="&#x2dc;" horiz-adv-x="412" 
d="M122 569l-61 55c33 53 87 87 138 87c23 0 47 -7 70 -21c23 -13 42 -20 57 -20c17 0 39 14 66 43l61 -55c-33 -53 -87 -87 -138 -87c-23 0 -47 7 -70 20c-23 14 -42 21 -57 21c-17 0 -39 -14 -66 -43z" />
    <glyph glyph-name="hungarumlaut" unicode="&#x2dd;" horiz-adv-x="461" 
d="M139 560h-95l93 148h168zM354 560h-95l93 148h168z" />
    <glyph glyph-name="uni2206" unicode="&#x394;" horiz-adv-x="671" 
d="M590 0h-598v32l248 668h102l248 -668v-32zM444 108l-153 440l-153 -440h306z" />
    <glyph glyph-name="uni2206" unicode="&#x2206;" horiz-adv-x="671" 
d="M590 0h-598v32l248 668h102l248 -668v-32zM444 108l-153 440l-153 -440h306z" />
    <glyph glyph-name="uni2126" unicode="&#x3a9;" horiz-adv-x="690" 
d="M496 108h128v-108h-245v40l27 61c11 26 26 74 44 144c19 71 28 136 28 195c0 100 -48 160 -133 160s-133 -60 -133 -160c0 -59 8 -122 25 -189s33 -118 49 -155l25 -56v-40h-245v108h128c-5 8 -13 18 -37 66c-12 25 -23 49 -32 74c-19 49 -37 127 -37 192
c0 79 23 143 69 193c47 50 109 75 188 75s141 -25 187 -75c47 -50 70 -114 70 -193c0 -51 -9 -105 -27 -160c-17 -55 -35 -98 -53 -128z" />
    <glyph glyph-name="uni2126" unicode="&#x2126;" horiz-adv-x="690" 
d="M496 108h128v-108h-245v40l27 61c11 26 26 74 44 144c19 71 28 136 28 195c0 100 -48 160 -133 160s-133 -60 -133 -160c0 -59 8 -122 25 -189s33 -118 49 -155l25 -56v-40h-245v108h128c-5 8 -13 18 -37 66c-12 25 -23 49 -32 74c-19 49 -37 127 -37 192
c0 79 23 143 69 193c47 50 109 75 188 75s141 -25 187 -75c47 -50 70 -114 70 -193c0 -51 -9 -105 -27 -160c-17 -55 -35 -98 -53 -128z" />
    <glyph glyph-name="pi" unicode="&#x3c0;" horiz-adv-x="576" 
d="M118 394h-83v110h519v-110h-83v-394h-124v394h-105v-394h-124v394z" />
    <glyph glyph-name="uni2000" unicode="&#x2000;" horiz-adv-x="476" 
 />
    <glyph glyph-name="uni2001" unicode="&#x2001;" horiz-adv-x="953" 
 />
    <glyph glyph-name="uni2002" unicode="&#x2002;" horiz-adv-x="476" 
 />
    <glyph glyph-name="uni2003" unicode="&#x2003;" horiz-adv-x="953" 
 />
    <glyph glyph-name="uni2004" unicode="&#x2004;" horiz-adv-x="317" 
 />
    <glyph glyph-name="uni2005" unicode="&#x2005;" horiz-adv-x="238" 
 />
    <glyph glyph-name="uni2006" unicode="&#x2006;" horiz-adv-x="158" 
 />
    <glyph glyph-name="uni2007" unicode="&#x2007;" horiz-adv-x="158" 
 />
    <glyph glyph-name="uni2008" unicode="&#x2008;" horiz-adv-x="119" 
 />
    <glyph glyph-name="uni2009" unicode="&#x2009;" horiz-adv-x="190" 
 />
    <glyph glyph-name="uni200A" unicode="&#x200a;" horiz-adv-x="52" 
 />
    <glyph glyph-name="uni2010" unicode="&#x2010;" horiz-adv-x="505" 
d="M421 263h-373l21 108h373z" />
    <glyph glyph-name="uni2011" unicode="&#x2011;" horiz-adv-x="505" 
d="M421 263h-373l21 108h373z" />
    <glyph glyph-name="endash" unicode="&#x2013;" horiz-adv-x="570" 
d="M491 263h-445l21 108h445z" />
    <glyph glyph-name="emdash" unicode="&#x2014;" horiz-adv-x="759" 
d="M680 263h-634l21 108h634z" />
    <glyph glyph-name="quoteleft" unicode="&#x2018;" horiz-adv-x="324" 
d="M88 708h162l31 -244h-91z" />
    <glyph glyph-name="quoteright" unicode="&#x2019;" horiz-adv-x="275" 
d="M131 464h-92l125 244h163z" />
    <glyph glyph-name="quotesinglbase" unicode="&#x201a;" horiz-adv-x="365" 
d="M86 -14h-92l125 244h163z" />
    <glyph glyph-name="quotedblleft" unicode="&#x201c;" horiz-adv-x="544" 
d="M308 708h162l31 -244h-91zM88 708h162l31 -244h-91z" />
    <glyph glyph-name="quotedblright" unicode="&#x201d;" horiz-adv-x="485" 
d="M131 464h-92l125 244h163zM341 464h-92l125 244h163z" />
    <glyph glyph-name="quotedblbase" unicode="&#x201e;" horiz-adv-x="570" 
d="M86 -15h-92l125 244h163zM296 -15h-92l125 244h163z" />
    <glyph glyph-name="dagger" unicode="&#x2020;" horiz-adv-x="523" 
d="M209 396h-149l21 108h149l48 246h123l-48 -246h149l-21 -108h-149l-86 -446h-123z" />
    <glyph glyph-name="daggerdbl" unicode="&#x2021;" horiz-adv-x="523" 
d="M210 396h-149l21 108h149l48 246h123l-48 -246h148l-21 -108h-148l-18 -92h149l-21 -108h-149l-47 -246h-123l47 246h-148l21 108h148z" />
    <glyph glyph-name="bullet" unicode="&#x2022;" horiz-adv-x="387" 
d="M99 246c-23 23 -34 51 -34 84s11 60 34 83s51 35 84 35s60 -12 83 -35s35 -50 35 -83s-12 -61 -35 -84s-50 -34 -83 -34s-61 11 -84 34z" />
    <glyph glyph-name="ellipsis" unicode="&#x2026;" horiz-adv-x="948" 
d="M44 18c-32 32 -32 88 0 120s88 32 120 0s32 -88 0 -120s-88 -32 -120 0zM366 18c-32 32 -32 88 0 120s88 32 120 0s32 -88 0 -120s-88 -32 -120 0zM688 18c-32 32 -32 88 0 120s88 32 120 0s32 -88 0 -120s-88 -32 -120 0z" />
    <glyph glyph-name="uni202F" unicode="&#x202f;" horiz-adv-x="190" 
 />
    <glyph glyph-name="perthousand" unicode="&#x2030;" horiz-adv-x="1279" 
d="M55 522c0 55 20 100 61 137c36 33 82 49 137 49c79 0 136 -55 136 -134c0 -55 -20 -100 -61 -137c-36 -33 -82 -49 -137 -49c-79 0 -136 55 -136 134zM235 613c-43 0 -77 -34 -77 -78c0 -35 17 -52 51 -52c43 0 77 34 77 78c0 35 -17 52 -51 52zM464 126
c0 55 20 100 61 137c36 33 82 49 137 49c79 0 136 -55 136 -134c0 -55 -20 -100 -61 -137c-36 -33 -82 -49 -137 -49c-79 0 -136 55 -136 134zM644 217c-43 0 -77 -34 -77 -78c0 -35 17 -52 51 -52c43 0 77 34 77 78c0 35 -17 52 -51 52zM867 126c0 55 20 100 61 137
c36 33 82 49 137 49c79 0 136 -55 136 -134c0 -55 -20 -100 -61 -137c-36 -33 -82 -49 -137 -49c-79 0 -136 55 -136 134zM1047 217c-43 0 -77 -34 -77 -78c0 -35 17 -52 51 -52c43 0 77 34 77 78c0 35 -17 52 -51 52zM63 21l677 719l63 -61l-677 -719z" />
    <glyph glyph-name="guilsinglleft" unicode="&#x2039;" horiz-adv-x="415" 
d="M296 51l-267 218l16 88l352 212l-27 -143l-205 -121l155 -129z" />
    <glyph glyph-name="guilsinglright" unicode="&#x203a;" horiz-adv-x="415" 
d="M113 569l267 -218l-16 -88l-352 -212l27 143l205 121l-155 129z" />
    <glyph glyph-name="fraction" unicode="&#x2044;" horiz-adv-x="744" 
d="M2 21l677 719l63 -61l-677 -719z" />
    <glyph glyph-name="uni205F" unicode="&#x205f;" horiz-adv-x="238" 
 />
    <glyph glyph-name="uni2070" unicode="&#x2070;" horiz-adv-x="382" 
d="M245 704c85 0 136 -59 136 -154c0 -43 -7 -84 -21 -121c-27 -73 -95 -133 -188 -133c-85 0 -136 59 -136 154c0 43 7 83 20 120c28 75 96 134 189 134zM232 621c-33 0 -59 -17 -77 -51c-17 -34 -26 -70 -26 -107c0 -56 23 -84 56 -84s59 17 76 51c18 34 27 70 27 107
c0 56 -23 84 -56 84z" />
    <glyph glyph-name="uni2074" unicode="&#x2074;" horiz-adv-x="401" 
d="M284 300h-90l12 65h-173l9 45l219 290h100l-49 -252h47l-16 -83h-47zM246 570l-87 -122h63z" />
    <glyph glyph-name="uni2075" unicode="&#x2075;" horiz-adv-x="364" 
d="M36 418l85 10c4 -32 26 -49 54 -49c39 0 58 22 58 66c0 28 -18 48 -47 48c-19 0 -40 -8 -62 -25l-68 15l64 217h228l-16 -83h-153l-23 -67c19 10 41 15 66 15c64 0 105 -42 105 -107c0 -100 -64 -162 -165 -162c-72 0 -125 49 -126 122z" />
    <glyph glyph-name="uni2076" unicode="&#x2076;" horiz-adv-x="360" 
d="M234 704h103l-116 -147c7 1 13 2 18 2c55 0 99 -38 99 -109c0 -95 -65 -154 -164 -154c-72 0 -125 52 -125 119c0 37 13 72 38 105zM199 476c-31 0 -55 -22 -55 -54c0 -25 20 -43 44 -43c31 0 54 20 54 55c0 24 -16 42 -43 42z" />
    <glyph glyph-name="uni2077" unicode="&#x2077;" horiz-adv-x="326" 
d="M93 700h265l-6 -35l-221 -365h-96l192 317h-150z" />
    <glyph glyph-name="uni2078" unicode="&#x2078;" horiz-adv-x="319" 
d="M233 704c65 0 106 -39 106 -96c0 -40 -21 -71 -62 -92c28 -15 42 -40 42 -77c0 -91 -68 -143 -161 -143c-72 0 -120 42 -120 106c0 52 31 95 79 114c-21 13 -32 36 -32 67c0 41 17 72 51 95c25 17 57 26 97 26zM188 473c-32 0 -58 -22 -58 -53c0 -25 17 -41 40 -41
c35 0 58 21 58 54c0 24 -16 40 -40 40zM220 637c-31 0 -51 -20 -51 -52c0 -24 11 -36 34 -36c28 0 51 20 51 52c0 24 -11 36 -34 36z" />
    <glyph glyph-name="uni2079" unicode="&#x2079;" horiz-adv-x="360" 
d="M165 296h-103l116 147c-7 -1 -13 -2 -18 -2c-55 0 -99 38 -99 109c0 95 65 154 164 154c72 0 125 -52 125 -119c0 -37 -13 -72 -38 -105zM200 524c31 0 55 22 55 54c0 25 -20 43 -44 43c-31 0 -54 -20 -54 -55c0 -24 16 -42 43 -42z" />
    <glyph glyph-name="Euro" unicode="&#x20ac;" horiz-adv-x="627" 
d="M123 376h-90l71 108h50c28 69 70 124 126 164c57 40 118 60 184 60c99 0 165 -44 196 -131l-108 -59c-20 48 -62 74 -110 74c-72 0 -126 -36 -161 -108h224l-71 -108h-188l-11 -52h238l-71 -108h-174c9 -72 49 -108 119 -108c50 0 94 25 132 74l88 -61
c-64 -86 -145 -129 -242 -129c-63 0 -114 21 -153 63c-38 43 -59 96 -64 161h-106l70 108h40z" />
    <glyph glyph-name="trademark" unicode="&#x2122;" horiz-adv-x="852" 
d="M177 610h-104l17 90h306l-17 -90h-104l-60 -310h-98zM477 300h-98l77 400h98l50 -233l139 233h103l-77 -400h-98l37 193l-95 -156h-64l-35 156z" />
    <glyph glyph-name="partialdiff" unicode="&#x2202;" horiz-adv-x="635" 
d="M214 528l-113 35c13 41 40 76 81 103c41 28 86 42 135 42c179 0 255 -112 255 -340c0 -109 -21 -195 -68 -266c-47 -69 -131 -110 -243 -110c-64 0 -116 20 -157 60s-61 92 -61 157c0 87 29 160 88 217s133 86 223 86c32 0 61 -7 87 -22c-12 76 -47 112 -112 112
c-53 0 -91 -25 -115 -74zM343 406c-47 0 -86 -20 -118 -59c-31 -39 -47 -82 -47 -130c0 -67 35 -119 103 -119c47 0 84 18 111 55c28 37 42 82 42 134c0 79 -30 119 -91 119z" />
    <glyph glyph-name="product" unicode="&#x220f;" horiz-adv-x="549" 
d="M194 0h-124v700h409v-700h-124v590h-161v-590z" />
    <glyph glyph-name="summation" unicode="&#x2211;" horiz-adv-x="557" 
d="M490 110v-110h-441v55l186 295l-186 295v55h441v-110h-272l141 -226v-28l-141 -226h272z" />
    <glyph glyph-name="minus" unicode="&#x2212;" horiz-adv-x="607" 
d="M517 263h-476l21 108h476z" />
    <glyph glyph-name="radical" unicode="&#x221a;" horiz-adv-x="562" 
d="M150 277h-116v112h184l71 -226l156 545h119l-219 -708h-104z" />
    <glyph glyph-name="infinity" unicode="&#x221e;" horiz-adv-x="882" 
d="M642 168c-75 0 -154 30 -198 95c-44 -65 -123 -95 -198 -95c-123 0 -196 76 -196 191s73 191 196 191c75 0 154 -30 198 -95c44 65 123 95 198 95c123 0 196 -76 196 -191s-73 -191 -196 -191zM263 272c40 0 86 27 118 87c-32 60 -78 87 -118 87c-55 0 -90 -30 -90 -87
s35 -87 90 -87zM625 272c55 0 90 30 90 87s-35 87 -90 87c-47 0 -86 -29 -117 -87c31 -58 70 -87 117 -87z" />
    <glyph glyph-name="integral" unicode="&#x222b;" horiz-adv-x="435" 
d="M99 -43l112 573c23 119 91 178 204 178c41 0 73 -7 94 -20l-46 -100c-20 9 -39 14 -57 14c-38 0 -61 -21 -70 -63l-112 -573c-23 -119 -90 -178 -201 -178c-43 0 -76 7 -97 20l46 100c20 -9 39 -14 57 -14c38 0 61 21 70 63z" />
    <glyph glyph-name="approxequal" unicode="&#x2248;" horiz-adv-x="586" 
d="M82 144l-53 69c18 31 43 58 75 79c33 21 65 32 98 32c29 0 63 -10 100 -30c37 -19 67 -29 88 -29c33 0 66 17 99 51l53 -69c-18 -31 -43 -58 -76 -79c-32 -21 -64 -32 -97 -32c-30 0 -63 10 -100 29c-37 20 -66 30 -88 30c-33 0 -66 -17 -99 -51zM79 351l-53 69
c18 31 43 58 75 79c33 21 65 32 98 32c30 0 63 -10 100 -30c37 -19 66 -29 88 -29c33 0 66 17 99 51l53 -69c-18 -31 -43 -58 -76 -79c-32 -21 -64 -32 -97 -32c-29 0 -63 10 -100 29c-37 20 -67 30 -88 30c-33 0 -66 -17 -99 -51z" />
    <glyph glyph-name="notequal" unicode="&#x2260;" horiz-adv-x="621" 
d="M269 346h-177v108h238l59 103l94 -52l-29 -51h75v-108h-136l-41 -72h177v-108h-238l-59 -103l-94 52l29 51h-75v108h136z" />
    <glyph glyph-name="lessequal" unicode="&#x2264;" horiz-adv-x="585" 
d="M473 140l-391 203v118l391 203v-131l-252 -131l252 -131v-131zM516 0h-476v108h476v-108z" />
    <glyph glyph-name="greaterequal" unicode="&#x2265;" horiz-adv-x="585" 
d="M92 664l391 -203v-118l-391 -203v131l252 131l-252 131v131zM49 108h476v-108h-476v108z" />
    <glyph glyph-name="lozenge" unicode="&#x25ca;" horiz-adv-x="542" 
d="M332 0h-122l-181 350l181 350h122l181 -350zM153 350l118 -242l118 242l-118 241z" />
    <glyph glyph-name="CR" horiz-adv-x="221" 
 />
    <glyph glyph-name="apple" horiz-adv-x="772" 
d="M682 617v-595c0 -12 -10 -22 -22 -22c-2 0 -4 0 -7 1l-267 77l-267 -77c-3 -1 -5 -1 -7 -1c-12 0 -22 10 -22 22v595c0 11 5 19 16 22l270 78c8 3 12 3 20 0l270 -78c11 -3 16 -11 16 -22zM364 366v303l-230 -67c4 -63 28 -116 71 -161c44 -45 97 -70 159 -75zM638 602
l-230 67v-303c62 5 115 30 158 75c44 45 68 98 72 161zM133 463v-412l231 67v204c-97 8 -183 61 -231 141zM408 118l231 -67v412c-49 -80 -134 -133 -231 -141v-204z" />
    <glyph glyph-name="No" horiz-adv-x="1313" 
d="M465 238l90 462h131l-137 -700h-138l-164 462l-90 -462h-131l137 700h138zM1146 0h-455l21 108h455zM747 401c0 96 29 172 86 227c61 59 119 80 206 80c67 0 120 -20 160 -61c40 -40 60 -91 60 -152c0 -96 -29 -172 -86 -227c-61 -59 -119 -80 -206 -80
c-67 0 -120 20 -160 60c-40 41 -60 92 -60 153zM1028 602c-47 0 -84 -18 -111 -54c-25 -31 -37 -74 -37 -128c0 -77 38 -126 98 -126c47 0 84 18 111 54c25 31 37 74 37 128c0 77 -38 126 -98 126z" />
    <glyph glyph-name="zero.tn" 
d="M573 449c1 -214 -94 -456 -343 -457c-59 0 -107 21 -146 64c-38 43 -57 108 -57 195c3 163 49 333 184 416c46 27 99 41 158 41s108 -22 146 -65c39 -43 58 -107 58 -194zM347 592c-42 0 -78 -20 -109 -59c-61 -79 -84 -184 -84 -277c0 -97 38 -148 99 -148
c42 0 78 20 109 59c61 79 84 184 84 277c0 97 -38 148 -99 148z" />
    <glyph glyph-name="one.tn" 
d="M171 580l229 120h56l-137 -700h-127l102 524l-149 -80z" />
    <glyph glyph-name="two.tn" 
d="M449 0h-447l9 50l312 326c56 57 83 98 83 150c0 41 -24 66 -67 66c-50 0 -85 -33 -106 -100l-119 20c29 121 116 196 235 196s184 -65 184 -174c0 -72 -25 -123 -81 -182l-223 -236h242z" />
    <glyph glyph-name="three.tn" 
d="M31 195l116 15c9 -68 43 -102 103 -102c80 0 124 54 124 134c0 73 -31 110 -92 110c-21 0 -42 -5 -64 -15l-36 66l164 189h-218l20 108h402l-8 -44l-210 -223c13 1 23 2 29 2c87 0 140 -60 140 -177c0 -83 -23 -148 -70 -195s-110 -71 -189 -71c-63 0 -114 20 -153 59
c-39 40 -58 88 -58 144z" />
    <glyph glyph-name="four.tn" 
d="M393 0h-127l26 130h-300l12 64l393 506h133l-89 -454h78l-22 -116h-78zM363 500l-184 -254h135z" />
    <glyph glyph-name="five.tn" 
d="M44 190l122 18c3 -65 38 -100 94 -100c77 0 127 55 127 142c0 65 -32 103 -88 103c-52 0 -99 -21 -142 -63l-76 16l110 394h367l-22 -116h-260l-44 -146c33 17 66 26 99 26c116 0 183 -67 183 -195c0 -85 -25 -152 -74 -202s-114 -75 -197 -75c-62 0 -111 17 -147 50
c-35 34 -53 76 -53 127c0 9 0 16 1 21z" />
    <glyph glyph-name="six.tn" 
d="M515 708l-204 -260h16c113 0 186 -71 186 -195c0 -82 -26 -146 -78 -192c-51 -46 -116 -69 -194 -69c-61 0 -111 18 -149 53c-37 36 -56 81 -56 136c0 62 22 121 66 178l268 349h145zM296 332c-36 0 -67 -13 -94 -38c-26 -25 -39 -57 -39 -94c0 -55 40 -92 89 -92
c37 0 68 13 94 38c27 25 40 56 40 93c0 60 -37 93 -90 93z" />
    <glyph glyph-name="seven.tn" 
d="M166 700h426l-11 -52l-380 -648h-135l342 584h-265z" />
    <glyph glyph-name="eight.tn" 
d="M360 708c111 0 178 -63 178 -174c0 -72 -48 -134 -105 -159c37 -20 71 -83 71 -148c0 -69 -21 -124 -62 -164c-49 -47 -118 -71 -207 -71c-57 0 -104 17 -142 52s-57 79 -57 133c0 95 55 167 134 203c-27 23 -49 68 -49 115c0 61 23 111 68 152s102 61 171 61zM290 310
c-71 0 -127 -46 -127 -115c0 -56 38 -87 90 -87c69 0 124 40 124 112c0 57 -34 90 -87 90zM345 604c-56 0 -105 -42 -105 -102c0 -44 29 -76 72 -76c60 0 107 42 107 101c0 47 -29 77 -74 77z" />
    <glyph glyph-name="nine.tn" 
d="M71 -8l204 260h-16c-113 0 -186 71 -186 195c0 82 26 146 77 192c52 46 117 69 195 69c61 0 111 -18 148 -54c38 -35 57 -80 57 -135c0 -62 -22 -121 -66 -178l-268 -349h-145zM290 368c36 0 67 13 93 38c27 25 40 57 40 94c0 56 -36 92 -89 92c-37 0 -68 -13 -95 -38
c-26 -25 -39 -56 -39 -93c0 -60 37 -93 90 -93z" />
    </font>
</defs>
</svg>
