<?xml version="1.0" standalone="no"?>
<!DOCTYPE svg PUBLIC "-//W3C//DTD SVG 1.1//EN" "http://www.w3.org/Graphics/SVG/1.1/DTD/svg11.dtd" >
<svg xmlns="http://www.w3.org/2000/svg" xmlns:xlink="http://www.w3.org/1999/xlink" version="1.1">
<metadata>
Created by FontForge 20170910 at Fri Aug 27 16:26:01 2010
 By Jimmy Wärting
Copyright (c) 2009 by The Entente (AS &#38; EH). All rights reserved.
</metadata>
<defs>
<font id="Apercu-Light" horiz-adv-x="566" >
  <font-face 
    font-family="Apercu"
    font-weight="300"
    font-stretch="normal"
    units-per-em="1000"
    panose-1="2 0 5 6 3 0 0 2 0 4"
    ascent="800"
    descent="-200"
    x-height="504"
    cap-height="700"
    bbox="-74 -229 2397 947"
    underline-thickness="50"
    underline-position="-100"
    unicode-range="U+0020-FB02"
  />
<missing-glyph horiz-adv-x="619" 
d="M518 0h-417v700h417v-700zM454 58v584h-289v-584h289z" />
    <glyph glyph-name="uniFB01" unicode="fi" horiz-adv-x="538" 
d="M130 446h-80v58h80v16c0 58 19 104 56 137c38 34 85 51 140 51c43 0 79 -10 110 -29l-13 -57c-33 19 -67 28 -102 28c-77 0 -129 -49 -129 -120v-26h264v-504h-62v446h-202v-446h-62v446z" />
    <glyph glyph-name="uniFB02" unicode="fl" horiz-adv-x="581" 
d="M128 446h-78v58h78v32c0 115 52 172 156 172h209v-708h-62v650h-152c-59 0 -89 -35 -89 -104v-42h122v-58h-122v-446h-62v446z" />
    <glyph glyph-name=".notdef" horiz-adv-x="619" 
d="M518 0h-417v700h417v-700zM454 58v584h-289v-584h289z" />
    <glyph glyph-name="NULL" horiz-adv-x="0" 
 />
    <glyph glyph-name="CR" horiz-adv-x="333" 
 />
    <glyph glyph-name="space" unicode=" " horiz-adv-x="252" 
 />
    <glyph glyph-name="exclam" unicode="!" horiz-adv-x="325" 
d="M145 184l-22 516h84l-22 -516h-40zM125 13c-20 21 -20 59 0 79c21 21 59 21 79 0c21 -20 21 -58 0 -79c-20 -20 -58 -20 -79 0z" />
    <glyph glyph-name="quotedbl" unicode="&#x22;" horiz-adv-x="418" 
d="M159 480h-47l-21 228h89zM306 480h-47l-21 228h89z" />
    <glyph glyph-name="numbersign" unicode="#" horiz-adv-x="717" 
d="M239 432h-122v54h134l43 214h56l-43 -214h159l44 214h56l-44 -214h118v-54h-129l-33 -164h122v-54h-134l-43 -214h-56l43 214h-159l-44 -214h-56l44 214h-118v54h129zM455 432h-160l-33 -164h160z" />
    <glyph glyph-name="dollar" unicode="$" horiz-adv-x="506" 
d="M418 600l-54 -34c-28 53 -67 80 -116 80c-61 0 -97 -49 -97 -102c0 -63 48 -103 108 -131c30 -13 60 -28 89 -43c60 -29 108 -88 108 -173c0 -113 -70 -192 -170 -205v-82h-60v82c-97 12 -163 85 -184 189l57 34c28 -100 69 -161 157 -161c79 0 131 50 131 141
c0 64 -47 107 -107 135c-85 39 -197 85 -195 206c0 46 13 84 40 115s61 50 101 55v84h60v-85c67 -9 97 -42 132 -105z" />
    <glyph glyph-name="percent" unicode="%" horiz-adv-x="844" 
d="M106 434c-29 31 -44 69 -44 114s15 82 44 113c30 31 68 47 113 47s83 -16 112 -47c30 -31 45 -68 45 -113s-15 -83 -45 -114c-29 -31 -67 -46 -112 -46s-83 15 -113 46zM144 624c-19 -20 -28 -45 -28 -76s9 -56 28 -76s44 -30 75 -30s56 10 75 30s28 45 28 76
s-9 56 -28 76s-44 30 -75 30s-56 -10 -75 -30zM512 38c-29 31 -44 69 -44 114s15 82 44 113c30 31 68 47 113 47s83 -16 112 -47c30 -31 45 -68 45 -113s-15 -83 -45 -114c-29 -31 -67 -46 -112 -46s-83 15 -113 46zM550 228c-19 -20 -28 -45 -28 -76s9 -56 28 -76
s44 -30 75 -30s56 10 75 30s28 45 28 76s-9 56 -28 76s-44 30 -75 30s-56 -10 -75 -30zM130 9l542 715l42 -33l-542 -715z" />
    <glyph glyph-name="ampersand" unicode="&#x26;" horiz-adv-x="657" 
d="M283 -8c-123 0 -204 75 -204 202c0 104 63 177 139 216c-44 60 -66 110 -66 149c0 93 67 149 151 149c93 0 153 -57 153 -140c0 -67 -49 -127 -148 -178l163 -209c19 36 36 79 53 128l43 -50c-19 -53 -38 -95 -57 -128l103 -131h-72l-65 82c-49 -60 -113 -90 -193 -90z
M283 50c63 0 115 27 155 80l-184 235c-75 -41 -113 -98 -113 -173c0 -85 58 -142 142 -142zM303 654c-55 0 -89 -36 -89 -99c0 -30 19 -70 58 -120c84 41 122 76 122 128s-32 91 -91 91z" />
    <glyph glyph-name="quotesingle" unicode="'" horiz-adv-x="271" 
d="M159 480h-47l-21 228h89z" />
    <glyph glyph-name="parenleft" unicode="(" horiz-adv-x="281" 
d="M180 750h66c-71 -115 -106 -248 -106 -400s35 -285 106 -400h-66c-73 118 -109 251 -109 400s36 282 109 400z" />
    <glyph glyph-name="parenright" unicode=")" horiz-adv-x="281" 
d="M35 750h66c73 -118 109 -251 109 -400s-36 -282 -109 -400h-66c71 115 106 248 106 400s-35 285 -106 400z" />
    <glyph glyph-name="asterisk" unicode="*" horiz-adv-x="492" 
d="M218 708h56v-146l139 46l18 -54l-139 -47l86 -116l-46 -34l-86 117l-86 -117l-46 34l86 116l-139 47l18 54l139 -46v146z" />
    <glyph glyph-name="plus" unicode="+" horiz-adv-x="545" 
d="M302 344h177v-56h-177v-177h-56v177h-177v56h177v176h56v-176z" />
    <glyph glyph-name="comma" unicode="," horiz-adv-x="279" 
d="M112 -77h-46l50 165h92z" />
    <glyph glyph-name="hyphen" unicode="-" horiz-adv-x="471" 
d="M400 289h-329v56h329v-56z" />
    <glyph glyph-name="period" unicode="." horiz-adv-x="284" 
d="M91 49c0 29 22 51 51 51s51 -22 51 -51s-22 -51 -51 -51s-51 20 -51 51z" />
    <glyph glyph-name="slash" unicode="/" horiz-adv-x="527" 
d="M17 -50l436 800h66l-436 -800h-66z" />
    <glyph glyph-name="zero" unicode="0" horiz-adv-x="616" 
d="M128 611c41 65 101 97 180 97s138 -32 179 -97c41 -64 62 -151 62 -261s-21 -197 -62 -262c-41 -64 -100 -96 -179 -96s-139 32 -180 96c-41 65 -61 152 -61 262s20 197 61 261zM438 569c-31 55 -75 83 -130 83s-99 -28 -130 -83s-47 -128 -47 -219s16 -164 47 -219
s75 -83 130 -83s99 28 130 83s47 128 47 219s-16 164 -47 219z" />
    <glyph glyph-name="one" unicode="1" horiz-adv-x="346" 
d="M71 597l162 103h16v-700h-62v594l-116 -73v76z" />
    <glyph glyph-name="two" unicode="2" horiz-adv-x="569" 
d="M489 0h-414v23l255 330c32 41 53 72 63 94s15 48 15 77c0 79 -47 128 -124 128c-72 0 -124 -58 -136 -141l-58 11c5 55 26 99 61 134s80 52 133 52c111 0 188 -69 188 -186c0 -53 -28 -116 -85 -189l-214 -277h316v-56z" />
    <glyph glyph-name="three" unicode="3" horiz-adv-x="573" 
d="M63 192l62 9c11 -93 64 -153 153 -153c101 0 157 63 157 166c0 108 -57 167 -157 167c-23 0 -43 -6 -62 -18l-30 39l181 242h-269v56h366v-17l-189 -251c6 2 15 3 26 3c54 0 100 -20 139 -60c39 -39 59 -93 59 -161c0 -67 -20 -120 -60 -161c-39 -41 -93 -61 -161 -61
c-116 0 -202 75 -215 200z" />
    <glyph glyph-name="four" unicode="4" horiz-adv-x="582" 
d="M430 0h-62v161h-309v17l295 522h76v-483h93v-56h-93v-161zM368 612l-221 -395h221v395z" />
    <glyph glyph-name="five" unicode="5" horiz-adv-x="563" 
d="M72 184l61 11c13 -98 61 -147 144 -147c100 0 152 68 152 180c0 119 -56 180 -152 180c-59 0 -107 -31 -144 -94l-44 10l36 376h327v-56h-271l-25 -238c36 39 78 58 127 58c129 0 210 -91 210 -236c0 -70 -19 -127 -58 -171c-39 -43 -91 -65 -158 -65
c-111 0 -189 65 -205 192z" />
    <glyph glyph-name="six" unicode="6" horiz-adv-x="574" 
d="M296 448c64 0 116 -22 157 -66c41 -43 61 -97 61 -162s-20 -119 -61 -163c-41 -43 -93 -65 -157 -65s-116 22 -157 65c-41 44 -61 98 -61 163c0 42 12 85 37 129l207 359h65l-156 -277c15 11 36 17 65 17zM142 220c0 -50 14 -91 43 -124c29 -32 66 -48 111 -48
s81 16 110 48c29 33 44 74 44 124c0 105 -63 172 -154 172s-154 -67 -154 -172z" />
    <glyph glyph-name="seven" unicode="7" horiz-adv-x="478" 
d="M447 680l-277 -680h-65l268 644h-314v56h388v-20z" />
    <glyph glyph-name="eight" unicode="8" horiz-adv-x="578" 
d="M475 526c0 -69 -37 -122 -88 -149c64 -24 112 -96 112 -181c0 -64 -20 -114 -61 -150c-40 -36 -90 -54 -149 -54s-109 18 -150 54c-40 36 -60 86 -60 150c0 85 48 157 112 181c-51 27 -88 80 -88 149c0 54 17 98 51 131c35 34 80 51 135 51s100 -17 134 -51
c35 -33 52 -77 52 -131zM289 48c89 0 146 56 146 148s-58 148 -146 148s-146 -56 -146 -148s58 -148 146 -148zM379 617c-23 23 -53 35 -90 35s-67 -12 -90 -35s-34 -53 -34 -91s11 -69 34 -92s53 -34 90 -34s67 11 90 34s34 54 34 92s-11 68 -34 91z" />
    <glyph glyph-name="nine" unicode="9" horiz-adv-x="567" 
d="M289 252c-64 0 -116 22 -157 65c-41 44 -61 98 -61 163s20 119 61 162c41 44 93 66 157 66s116 -22 157 -66c41 -43 61 -97 61 -162c0 -42 -12 -85 -37 -129l-207 -359h-65l156 277c-15 -11 -36 -17 -65 -17zM443 480c0 50 -15 91 -44 123c-29 33 -65 49 -110 49
s-82 -16 -111 -49c-29 -32 -43 -73 -43 -123c0 -105 63 -172 154 -172s154 67 154 172z" />
    <glyph glyph-name="colon" unicode=":" horiz-adv-x="298" 
d="M98 49c0 44 56 69 87 36c33 -31 8 -87 -36 -87c-31 0 -51 20 -51 51zM98 415c0 44 56 69 87 36c33 -31 8 -87 -36 -87c-31 0 -51 20 -51 51z" />
    <glyph glyph-name="semicolon" unicode=";" horiz-adv-x="298" 
d="M98 415c0 44 56 69 87 36c33 -31 8 -87 -36 -87c-31 0 -51 20 -51 51zM107 -77h-46l50 165h92z" />
    <glyph glyph-name="less" unicode="&#x3c;" horiz-adv-x="452" 
d="M390 96l-334 180v68l334 180v-62l-283 -152l283 -152v-62z" />
    <glyph glyph-name="equal" unicode="=" horiz-adv-x="591" 
d="M489 365h-387v56h387v-56zM489 199h-387v56h387v-56z" />
    <glyph glyph-name="greater" unicode="&#x3e;" horiz-adv-x="452" 
d="M62 524l334 -180v-68l-334 -180v62l283 152l-283 152v62z" />
    <glyph glyph-name="question" unicode="?" horiz-adv-x="438" 
d="M188 13c-20 21 -20 59 0 79c21 21 59 21 79 0c21 -20 21 -58 0 -79c-20 -20 -58 -20 -79 0zM303 321l50 -19c-19 -70 -62 -105 -127 -105c-69 0 -124 42 -124 121c0 53 29 96 88 128l82 45c35 19 52 43 52 74c0 53 -35 85 -98 85c-59 0 -96 -34 -113 -102l-63 11
c16 93 80 149 183 149c91 0 155 -57 155 -140c0 -51 -29 -93 -87 -124l-72 -39c-47 -25 -65 -49 -65 -89c0 -37 23 -61 60 -61c40 0 64 19 79 66z" />
    <glyph glyph-name="at" unicode="@" horiz-adv-x="862" 
d="M545 453l14 56h54l-24 -265c-1 -15 -2 -22 -2 -23c0 -38 18 -57 55 -57c67 0 102 73 102 188c0 196 -110 310 -303 310c-162 -1 -326 -130 -325 -361c0 -105 30 -188 91 -249c61 -60 139 -90 233 -90c88 0 155 17 246 69l22 -50c-52 -28 -97 -47 -136 -58
c-38 -11 -82 -17 -132 -17c-113 0 -206 35 -279 106s-110 168 -110 289c0 135 48 247 123 314s169 103 272 103c109 0 196 -32 263 -95s100 -154 100 -271c0 -163 -72 -244 -171 -244c-56 0 -96 35 -108 78c-34 -52 -79 -78 -135 -78c-108 0 -169 74 -169 187
c0 63 19 115 58 157c39 43 89 64 149 64c51 0 93 -24 112 -63zM426 460c-81 0 -134 -72 -134 -168c0 -83 42 -128 110 -128c40 0 72 17 95 50c24 33 36 73 36 118c0 79 -39 128 -107 128z" />
    <glyph glyph-name="A" unicode="A" horiz-adv-x="584" 
d="M10 0l253 700h58l253 -700h-68l-70 199h-288l-70 -199h-68zM415 261l-123 349l-123 -349h246z" />
    <glyph glyph-name="B" unicode="B" horiz-adv-x="616" 
d="M101 0v700h225c123 0 195 -67 195 -180c0 -61 -40 -116 -88 -137c73 -27 124 -86 124 -181c0 -123 -83 -202 -215 -202h-241zM329 342h-162v-280h162c105 0 159 40 159 140s-54 140 -159 140zM326 638h-159v-234h159c85 0 127 39 127 117s-42 117 -127 117z" />
    <glyph glyph-name="C" unicode="C" horiz-adv-x="680" 
d="M567 211l65 -19c-36 -124 -132 -200 -264 -200c-85 0 -158 31 -219 93c-60 62 -90 150 -90 265c0 117 37 214 96 270c59 57 133 88 213 88c132 0 228 -76 264 -200l-65 -19c-27 100 -95 157 -199 157c-72 0 -130 -26 -174 -78s-66 -125 -66 -218s22 -166 66 -218
s102 -78 174 -78c104 0 172 57 199 157z" />
    <glyph glyph-name="D" unicode="D" horiz-adv-x="662" 
d="M101 0v700h184c92 0 168 -32 228 -95s90 -148 90 -255s-30 -193 -90 -256s-136 -94 -228 -94h-184zM286 638h-119v-576h119c70 0 129 24 176 73c48 49 72 120 72 215s-24 166 -72 215c-47 49 -106 73 -176 73z" />
    <glyph glyph-name="E" unicode="E" horiz-adv-x="568" 
d="M101 0v700h395v-62h-329v-234h269v-62h-269v-280h339v-62h-405z" />
    <glyph glyph-name="F" unicode="F" horiz-adv-x="563" 
d="M101 0v700h402v-62h-336v-242h276v-62h-276v-334h-66z" />
    <glyph glyph-name="G" unicode="G" horiz-adv-x="708" 
d="M640 0h-58l-8 108c-37 -72 -116 -116 -208 -116c-85 0 -157 31 -217 94s-90 151 -90 264s30 201 90 264s132 94 217 94c137 0 235 -77 270 -204l-65 -18c-32 103 -104 160 -205 160c-71 0 -129 -26 -173 -78c-43 -52 -65 -125 -65 -218s22 -166 65 -218
c44 -52 102 -78 173 -78c133 0 207 82 208 237h-162v62h228v-353z" />
    <glyph glyph-name="H" unicode="H" horiz-adv-x="690" 
d="M523 403v297h66v-700h-66v341h-356v-341h-66v700h66v-297h356z" />
    <glyph glyph-name="I" unicode="I" horiz-adv-x="268" 
d="M101 700h66v-700h-66v700z" />
    <glyph glyph-name="J" unicode="J" horiz-adv-x="497" 
d="M344 198v502h66v-495c0 -67 -19 -119 -58 -157c-38 -37 -84 -56 -139 -56c-59 0 -105 17 -138 51c-33 35 -53 77 -60 128l68 15c12 -83 54 -132 130 -132c77 0 131 48 131 144z" />
    <glyph glyph-name="K" unicode="K" horiz-adv-x="565" 
d="M237 386l312 -386h-81l-301 371v-371h-66v700h66v-299l273 299h84z" />
    <glyph glyph-name="L" unicode="L" horiz-adv-x="515" 
d="M101 0v700h66v-638h328v-62h-394z" />
    <glyph glyph-name="M" unicode="M" horiz-adv-x="782" 
d="M101 0v700h82l208 -527l208 527h82v-700h-66v572l-203 -508h-42l-203 508v-572h-66z" />
    <glyph glyph-name="N" unicode="N" horiz-adv-x="693" 
d="M526 105v595h66v-700h-78l-347 593v-593h-66v700h78z" />
    <glyph glyph-name="O" unicode="O" horiz-adv-x="732" 
d="M148 609c60 66 133 99 218 99s158 -33 217 -99c60 -65 90 -152 90 -259s-30 -194 -90 -260c-59 -65 -132 -98 -217 -98s-158 33 -218 98c-59 66 -89 153 -89 260s30 194 89 259zM536 568c-45 52 -101 78 -170 78s-126 -26 -171 -78c-45 -51 -67 -124 -67 -218
s22 -167 67 -219c45 -51 102 -77 171 -77s125 26 170 77c45 52 68 125 68 219s-23 167 -68 218z" />
    <glyph glyph-name="P" unicode="P" horiz-adv-x="578" 
d="M339 314h-172v-314h-66v700h238c125 0 202 -73 202 -193s-77 -193 -202 -193zM167 376h173c91 0 132 51 132 131s-41 131 -132 131h-173v-262z" />
    <glyph glyph-name="Q" unicode="Q" horiz-adv-x="732" 
d="M673 350c0 -99 -26 -182 -79 -247l67 -66l-45 -45l-66 66c-53 -44 -115 -66 -184 -66c-85 0 -158 33 -218 98c-59 66 -89 153 -89 260s30 194 89 259c60 66 133 99 218 99s158 -33 217 -99c60 -65 90 -152 90 -259zM506 101l-74 75l45 45l72 -73c37 53 55 120 55 202
c0 94 -23 167 -68 218c-45 52 -101 78 -170 78s-126 -26 -171 -78c-45 -51 -67 -124 -67 -218s22 -167 67 -219c45 -51 102 -77 171 -77c54 0 101 16 140 47z" />
    <glyph glyph-name="R" unicode="R" horiz-adv-x="636" 
d="M591 0h-74l-219 346h-131v-346h-66v700h225c127 0 200 -60 200 -177c0 -101 -56 -161 -153 -174zM322 638h-155v-230h155c91 0 137 38 137 115s-46 115 -137 115z" />
    <glyph glyph-name="S" unicode="S" horiz-adv-x="506" 
d="M418 600l-54 -34c-28 53 -67 80 -116 80c-61 0 -97 -49 -97 -102c0 -63 48 -103 108 -131c30 -13 60 -28 89 -43c60 -29 108 -88 108 -173c0 -62 -19 -112 -57 -149c-37 -37 -85 -56 -143 -56c-113 0 -190 76 -214 189l57 34c28 -100 69 -161 157 -161
c79 0 131 50 131 141c0 64 -47 107 -107 135c-85 39 -197 85 -195 206c0 51 16 92 47 124c32 32 71 48 116 48c32 0 59 -5 82 -16c47 -21 61 -44 88 -92z" />
    <glyph glyph-name="T" unicode="T" horiz-adv-x="516" 
d="M225 638h-209v62h484v-62h-209v-638h-66v638z" />
    <glyph glyph-name="U" unicode="U" horiz-adv-x="654" 
d="M87 224v476h66v-482c0 -93 62 -164 174 -164s174 71 174 164v482h66v-476c0 -73 -23 -130 -70 -171c-46 -41 -103 -61 -170 -61s-124 20 -171 61c-46 41 -69 98 -69 171z" />
    <glyph glyph-name="V" unicode="V" horiz-adv-x="574" 
d="M287 94l212 606h68l-245 -700h-70l-245 700h68z" />
    <glyph glyph-name="W" unicode="W" horiz-adv-x="899" 
d="M640 102l159 598h68l-192 -700h-67l-159 524l-158 -524h-67l-192 700h68l159 -598l161 524h59z" />
    <glyph glyph-name="X" unicode="X" 
d="M283 445l150 255h69l-185 -314l228 -386h-69l-193 328l-193 -328h-69l228 386l-185 314h69z" />
    <glyph glyph-name="Y" unicode="Y" horiz-adv-x="500" 
d="M217 0v304l-211 396h77l167 -331l167 331h77l-211 -396v-304h-66z" />
    <glyph glyph-name="Z" unicode="Z" horiz-adv-x="548" 
d="M400 638h-340v62h428v-32l-348 -606h355v-62h-447v32z" />
    <glyph glyph-name="bracketleft" unicode="[" horiz-adv-x="322" 
d="M280 -50h-179v800h179v-56h-119v-688h119v-56z" />
    <glyph glyph-name="backslash" unicode="\" horiz-adv-x="527" 
d="M444 -50l-436 800h66l436 -800h-66z" />
    <glyph glyph-name="bracketright" unicode="]" horiz-adv-x="322" 
d="M42 750h179v-800h-179v56h119v688h-119v56z" />
    <glyph glyph-name="asciicircum" unicode="^" horiz-adv-x="520" 
d="M52 429l184 271h48l184 -271h-69l-139 213l-139 -213h-69z" />
    <glyph glyph-name="underscore" unicode="_" horiz-adv-x="475" 
d="M442 -56h-409v56h409v-56z" />
    <glyph glyph-name="grave" unicode="`" horiz-adv-x="209" 
d="M21 700h93l70 -140h-49z" />
    <glyph glyph-name="a" unicode="a" horiz-adv-x="506" 
d="M122 145c0 -61 37 -95 98 -95c39 0 74 15 105 45c32 30 48 76 48 138v19h-82c-112 0 -169 -39 -169 -107zM435 334v-334h-47l-15 78c-33 -57 -86 -86 -159 -86c-92 0 -157 49 -157 153c0 109 87 165 232 165h84v22c0 84 -44 122 -116 122c-61 0 -101 -31 -120 -94l-60 14
c13 84 88 138 180 138c51 0 94 -16 127 -48c34 -31 51 -75 51 -130z" />
    <glyph glyph-name="b" unicode="b" horiz-adv-x="598" 
d="M96 0v708h64v-275c36 47 102 79 157 79c71 0 126 -25 165 -74c40 -49 60 -111 60 -186s-20 -138 -60 -187c-39 -49 -94 -73 -165 -73c-64 0 -130 34 -157 74v-66h-64zM477 252c0 59 -14 107 -43 145s-69 57 -120 57s-91 -19 -120 -57c-28 -38 -42 -86 -42 -145
c0 -119 58 -202 162 -202s163 83 163 202z" />
    <glyph glyph-name="c" unicode="c" horiz-adv-x="528" 
d="M426 153l56 -22c-35 -93 -103 -139 -203 -139c-70 0 -125 25 -164 76s-59 113 -59 184s20 132 59 183s94 77 164 77c100 0 168 -46 203 -139l-56 -22c-28 69 -77 103 -147 103c-51 0 -91 -19 -118 -58c-27 -38 -40 -86 -40 -144s13 -106 40 -145c27 -38 67 -57 118 -57
c70 0 119 34 147 103z" />
    <glyph glyph-name="d" unicode="d" horiz-adv-x="598" 
d="M438 433v275h64v-708h-64v66c-27 -40 -93 -74 -157 -74c-71 0 -126 24 -166 73c-39 49 -59 112 -59 187s20 137 59 186c40 49 95 74 166 74c55 0 121 -32 157 -79zM121 252c0 -119 59 -202 163 -202s162 83 162 202c0 59 -14 107 -43 145c-28 38 -68 57 -119 57
s-91 -19 -120 -57s-43 -86 -43 -145z" />
    <glyph glyph-name="e" unicode="e" horiz-adv-x="552" 
d="M501 280v-28h-380c0 -120 60 -202 159 -202c76 0 118 31 155 108l55 -27c-51 -100 -114 -139 -210 -139c-67 0 -121 24 -162 73s-62 112 -62 187s21 137 62 186s95 74 162 74c65 0 118 -21 159 -64s62 -99 62 -168zM280 454c-81 0 -138 -59 -155 -144h312
c-12 89 -68 144 -157 144z" />
    <glyph glyph-name="f" unicode="f" horiz-adv-x="359" 
d="M130 446h-80v58h80v32c0 115 52 172 156 172c24 0 44 -4 60 -13l-13 -57c-17 8 -35 12 -52 12c-59 0 -89 -35 -89 -104v-42h122v-58h-122v-446h-62v446z" />
    <glyph glyph-name="g" unicode="g" horiz-adv-x="491" 
d="M91 343c0 50 16 91 49 122s73 47 122 47c31 0 60 -8 87 -23l90 51l29 -53l-70 -39c23 -30 35 -65 35 -105c0 -51 -16 -92 -49 -123s-73 -46 -122 -46c-36 0 -67 8 -94 24c-27 -12 -41 -31 -41 -56c0 -32 21 -48 62 -48h130c92 0 151 -43 151 -132
c0 -119 -82 -174 -207 -174c-128 0 -208 62 -208 166c0 45 17 80 52 106c-27 16 -40 43 -40 82c0 40 25 73 62 90c-25 31 -38 68 -38 111zM312 40h-103c-18 0 -34 1 -49 3c-30 -19 -45 -50 -45 -91c0 -67 51 -108 148 -108c95 0 147 45 147 110c0 57 -33 86 -98 86zM184 427
c-21 -21 -31 -49 -31 -84s10 -63 31 -84s47 -31 78 -31s56 10 77 31s32 49 32 84s-11 63 -32 84s-46 31 -77 31s-57 -10 -78 -31z" />
    <glyph glyph-name="h" unicode="h" horiz-adv-x="585" 
d="M495 346v-346h-62v338c0 73 -37 116 -105 116c-47 0 -88 -22 -121 -66s-49 -102 -49 -173v-215h-62v708h62v-314c33 77 107 118 180 118c99 0 157 -61 157 -166z" />
    <glyph glyph-name="i" unicode="i" horiz-adv-x="280" 
d="M104 612c-19 20 -19 54 0 73c20 20 54 20 73 0c20 -19 20 -53 0 -73c-19 -19 -53 -19 -73 0zM110 0v504h62v-504h-62z" />
    <glyph glyph-name="j" unicode="j" horiz-adv-x="280" 
d="M110 -55v559h62v-568c0 -85 -42 -135 -125 -148l-14 58c55 16 77 40 77 99zM104 612c-19 20 -19 54 0 73c20 20 54 20 73 0c20 -19 20 -53 0 -73c-19 -19 -53 -19 -73 0z" />
    <glyph glyph-name="k" unicode="k" horiz-adv-x="482" 
d="M96 0v708h62v-427l211 223h78l-218 -231l236 -273h-79l-228 265v-265h-62z" />
    <glyph glyph-name="l" unicode="l" horiz-adv-x="244" 
d="M94 0v708h62v-708h-62z" />
    <glyph glyph-name="m" unicode="m" horiz-adv-x="852" 
d="M762 346v-346h-62v338c0 79 -23 116 -90 116c-42 0 -78 -21 -107 -64s-43 -99 -43 -169v-221h-62v338c0 79 -23 116 -90 116c-42 0 -78 -21 -107 -64s-43 -99 -43 -169v-221h-62v504h62v-105c32 69 89 113 160 113c76 0 122 -37 137 -112c35 65 98 112 165 112
c97 0 142 -54 142 -166z" />
    <glyph glyph-name="n" unicode="n" horiz-adv-x="576" 
d="M486 346v-346h-62v338c0 77 -34 116 -103 116c-47 0 -86 -21 -117 -64s-46 -99 -46 -169v-221h-62v504h62v-105c35 68 101 113 173 113c96 0 155 -61 155 -166z" />
    <glyph glyph-name="o" unicode="o" horiz-adv-x="584" 
d="M121 70c-43 52 -65 113 -65 182s22 130 65 182s100 78 171 78s128 -26 171 -78s65 -113 65 -182s-22 -130 -65 -182s-100 -78 -171 -78s-128 26 -171 78zM166 394c-30 -40 -45 -87 -45 -142s15 -102 45 -142c31 -40 73 -60 126 -60s95 20 125 60c31 40 46 87 46 142
s-15 102 -46 142c-30 40 -72 60 -125 60s-95 -20 -126 -60z" />
    <glyph glyph-name="p" unicode="p" horiz-adv-x="598" 
d="M160 71v-275h-64v708h64v-66c27 40 93 74 157 74c71 0 126 -25 165 -74c40 -49 60 -111 60 -186s-20 -138 -60 -187c-39 -49 -94 -73 -165 -73c-55 0 -121 32 -157 79zM477 252c0 119 -59 202 -163 202s-162 -83 -162 -202c0 -59 14 -107 42 -145c29 -38 69 -57 120 -57
s91 19 120 57s43 86 43 145z" />
    <glyph glyph-name="q" unicode="q" horiz-adv-x="598" 
d="M502 504v-708h-64v275c-36 -47 -102 -79 -157 -79c-71 0 -126 24 -166 73c-39 49 -59 112 -59 187s20 137 59 186c40 49 95 74 166 74c64 0 130 -34 157 -74v66h64zM121 252c0 -59 14 -107 43 -145s69 -57 120 -57s91 19 119 57c29 38 43 86 43 145
c0 119 -58 202 -162 202s-163 -83 -163 -202z" />
    <glyph glyph-name="r" unicode="r" horiz-adv-x="399" 
d="M382 495l-14 -59c-22 12 -46 18 -71 18c-81 0 -139 -94 -139 -259v-195h-62v504h62v-90c31 65 81 98 148 98c23 0 48 -6 76 -17z" />
    <glyph glyph-name="s" unicode="s" horiz-adv-x="450" 
d="M230 512c57 0 103 -26 140 -78l-44 -38c-29 39 -62 58 -99 58c-44 0 -74 -31 -74 -76c0 -37 37 -64 84 -83c68 -27 155 -60 155 -145c0 -97 -60 -158 -156 -158c-99 0 -159 62 -182 138l55 29c25 -69 59 -109 127 -109c59 0 91 34 91 90c0 41 -37 71 -84 88
c-68 27 -154 55 -154 149c0 80 60 135 141 135z" />
    <glyph glyph-name="t" unicode="t" horiz-adv-x="371" 
d="M116 446h-89v58h89v163l64 41v-204h134v-58h-134v-313c0 -55 23 -83 70 -83c25 0 46 5 63 16l17 -56c-22 -12 -51 -18 -88 -18c-77 0 -126 50 -126 151v303z" />
    <glyph glyph-name="u" unicode="u" horiz-adv-x="576" 
d="M90 158v346h62v-338c0 -77 34 -116 103 -116c47 0 85 21 116 64s47 99 47 169v221h62v-504h-62v105c-35 -68 -101 -113 -173 -113c-96 0 -155 61 -155 166z" />
    <glyph glyph-name="v" unicode="v" horiz-adv-x="448" 
d="M224 83l139 421h65l-170 -504h-68l-170 504h65z" />
    <glyph glyph-name="w" unicode="w" horiz-adv-x="718" 
d="M496 88l118 416h65l-151 -504h-64l-105 412l-105 -412h-64l-151 504h65l118 -416l106 416h62z" />
    <glyph glyph-name="x" unicode="x" horiz-adv-x="446" 
d="M189 275l-142 229h69l107 -174l107 174h69l-142 -229l170 -275h-65l-139 220l-139 -220h-65z" />
    <glyph glyph-name="y" unicode="y" horiz-adv-x="452" 
d="M232 96l140 408h65l-250 -708h-62l73 207l-181 501h65z" />
    <glyph glyph-name="z" unicode="z" horiz-adv-x="456" 
d="M313 446h-245v58h327v-34l-254 -412h265v-58h-350v30z" />
    <glyph glyph-name="braceleft" unicode="{" horiz-adv-x="317" 
d="M144 54v183c0 60 -22 85 -79 85v56c57 0 79 25 79 85v183c0 64 38 104 94 104h46v-56h-30c-35 0 -50 -15 -50 -50v-197c0 -57 -20 -81 -63 -97c43 -16 63 -40 63 -97v-197c0 -35 15 -50 50 -50h30v-56h-46c-56 0 -94 40 -94 104z" />
    <glyph glyph-name="bar" unicode="|" horiz-adv-x="262" 
d="M101 -50v800h60v-800h-60z" />
    <glyph glyph-name="braceright" unicode="}" horiz-adv-x="317" 
d="M173 237v-183c0 -64 -38 -104 -94 -104h-46v56h30c35 0 50 15 50 50v197c0 57 20 81 63 97c-43 16 -63 40 -63 97v197c0 35 -15 50 -50 50h-30v56h46c56 0 94 -40 94 -104v-183c0 -60 22 -85 79 -85v-56c-57 0 -79 -25 -79 -85z" />
    <glyph glyph-name="asciitilde" unicode="~" horiz-adv-x="602" 
d="M125 281l-40 39c37 52 78 78 122 78c26 0 56 -9 91 -27s64 -27 89 -27c35 0 65 15 90 45l40 -39c-37 -52 -78 -78 -122 -78c-26 0 -56 9 -91 27s-64 27 -89 27c-35 0 -65 -15 -90 -45z" />
    <glyph glyph-name="uni00A0" unicode="&#xa0;" horiz-adv-x="252" 
 />
    <glyph glyph-name="exclamdown" unicode="&#xa1;" horiz-adv-x="325" 
d="M180 310l22 -516h-84l22 516h40zM120 401c-20 21 -20 59 0 79c21 21 59 21 79 0c21 -20 21 -58 0 -79c-20 -20 -58 -20 -79 0z" />
    <glyph glyph-name="cent" unicode="&#xa2;" horiz-adv-x="548" 
d="M431 251l56 -22c-31 -82 -88 -128 -171 -138v-141h-60v141c-62 7 -110 36 -144 85c-34 50 -51 108 -51 174s17 124 51 173c34 50 82 79 144 86v141h60v-141c82 -9 139 -55 171 -138l-56 -22c-28 69 -77 103 -147 103c-51 0 -91 -19 -118 -58c-27 -38 -40 -86 -40 -144
s13 -106 40 -145c27 -38 67 -57 118 -57c70 0 119 34 147 103z" />
    <glyph glyph-name="sterling" unicode="&#xa3;" horiz-adv-x="530" 
d="M145 335h-84v58h63c-17 43 -25 81 -25 114c0 125 73 201 184 201c88 0 152 -53 185 -141l-55 -25c-33 73 -69 108 -130 108c-72 0 -120 -52 -120 -144c0 -29 8 -67 23 -113h164v-58h-146c7 -27 10 -53 10 -78c0 -32 -8 -66 -24 -102c-15 -36 -34 -64 -56 -83
c27 15 55 22 85 22c23 0 49 -8 77 -24s48 -24 61 -24c44 0 64 17 101 84l47 -27c-43 -81 -82 -111 -146 -111c-26 0 -54 8 -83 23s-53 23 -71 23c-44 0 -69 -14 -108 -46l-49 55c73 71 110 141 110 212c0 25 -4 50 -13 76z" />
    <glyph glyph-name="currency" unicode="&#xa4;" horiz-adv-x="546" 
d="M84 63l-55 55l87 67c-25 36 -38 77 -38 122s13 86 38 122l-87 67l55 55l66 -85c35 29 76 43 123 43s88 -14 123 -43l66 85l55 -55l-87 -67c25 -36 38 -77 38 -122s-13 -86 -38 -122l87 -67l-55 -55l-66 85c-35 -29 -76 -43 -123 -43s-88 14 -123 43zM172 414
c-25 -27 -38 -63 -38 -107s13 -80 38 -107s59 -41 101 -41s76 14 101 41s38 63 38 107s-13 80 -38 107s-59 41 -101 41s-76 -14 -101 -41z" />
    <glyph glyph-name="yen" unicode="&#xa5;" horiz-adv-x="500" 
d="M188 360l-175 340h77l160 -329l160 329h77l-175 -340h132v-56h-161v-87h161v-56h-161v-161h-66v161h-161v56h161v87h-161v56h132z" />
    <glyph glyph-name="brokenbar" unicode="&#xa6;" horiz-adv-x="262" 
d="M101 -50v349h60v-349h-60zM161 750v-349h-60v349h60z" />
    <glyph glyph-name="section" unicode="&#xa7;" horiz-adv-x="535" 
d="M470 212c0 -52 -27 -95 -81 -129c33 -33 49 -71 49 -114c0 -56 -17 -100 -50 -132c-33 -33 -72 -49 -119 -49c-97 0 -158 49 -181 146l56 19c21 -71 63 -107 125 -107c61 0 105 44 105 121c0 32 -12 57 -41 78c-15 11 -29 21 -42 28l-59 30c-26 13 -47 25 -63 34
c-71 40 -101 78 -101 147c0 52 27 95 81 129c-33 33 -49 71 -49 114c0 56 16 100 49 132c33 33 73 49 120 49c97 0 158 -49 181 -146l-56 -19c-21 71 -63 107 -125 107c-61 0 -105 -44 -105 -121c0 -32 12 -56 41 -79c15 -11 29 -20 42 -27s33 -18 59 -31s47 -24 63 -33
c71 -40 101 -78 101 -147zM266 156l73 -35c47 23 71 53 71 92c0 32 -18 57 -51 78c-19 13 -30 21 -55 33l-32 16l-73 35c-47 -23 -71 -53 -71 -92c0 -32 18 -55 51 -79c19 -12 30 -20 55 -33z" />
    <glyph glyph-name="dieresis" unicode="&#xa8;" horiz-adv-x="294" 
d="M21 650c0 28 21 50 49 50s49 -22 49 -50c0 -27 -21 -48 -49 -48s-49 21 -49 48zM175 650c0 28 21 50 48 50c28 0 50 -22 50 -50c0 -27 -22 -48 -50 -48c-27 0 -48 21 -48 48z" />
    <glyph glyph-name="copyright" unicode="&#xa9;" horiz-adv-x="902" 
d="M181 71c-71 75 -106 168 -106 279s35 204 106 278c71 75 161 112 270 112s198 -37 269 -112c71 -74 107 -167 107 -278s-36 -204 -107 -279c-71 -74 -160 -111 -269 -111s-199 37 -270 111zM224 584c-58 -63 -87 -141 -87 -234s29 -171 87 -234s134 -94 227 -94
s169 31 227 94s87 141 87 234s-29 171 -87 234s-134 94 -227 94s-169 -31 -227 -94zM565 280l53 -14c-21 -84 -84 -132 -167 -132c-49 0 -94 18 -135 55c-40 37 -60 90 -60 161s20 124 60 161c41 37 86 55 135 55c83 0 146 -48 167 -132l-53 -14c-20 61 -58 92 -114 92
c-80 0 -136 -57 -136 -162s56 -162 136 -162c56 0 94 31 114 92z" />
    <glyph glyph-name="ordfeminine" unicode="&#xaa;" horiz-adv-x="430" 
d="M363 564v-264h-37l-10 63c-26 -45 -68 -67 -127 -67c-71 0 -123 43 -123 120c0 85 67 130 182 130h66v17c0 62 -30 93 -91 93c-47 0 -78 -24 -93 -72l-48 12c13 68 69 108 141 108c85 0 140 -43 140 -140zM122 416c0 -48 28 -72 72 -72c31 0 58 11 83 34s37 58 37 107v15
h-64c-85 0 -128 -28 -128 -84z" />
    <glyph glyph-name="guillemotleft" unicode="&#xab;" horiz-adv-x="604" 
d="M313 94l-263 195v42l263 195v-68l-198 -148l198 -148v-68zM544 94l-263 195v42l263 195v-68l-198 -148l198 -148v-68z" />
    <glyph glyph-name="logicalnot" unicode="&#xac;" horiz-adv-x="573" 
d="M429 322h-359v58h423v-238h-64v180z" />
    <glyph glyph-name="uni00AD" unicode="&#xad;" horiz-adv-x="471" 
d="M400 289h-329v56h329v-56z" />
    <glyph glyph-name="registered" unicode="&#xae;" horiz-adv-x="902" 
d="M181 71c-71 75 -106 168 -106 279s35 204 106 278c71 75 161 112 270 112s198 -37 269 -112c71 -74 107 -167 107 -278s-36 -204 -107 -279c-71 -74 -160 -111 -269 -111s-199 37 -270 111zM224 584c-58 -63 -87 -141 -87 -234s29 -171 87 -234s134 -94 227 -94
s169 31 227 94s87 141 87 234s-29 171 -87 234s-134 94 -227 94s-169 -31 -227 -94zM623 137h-62l-126 182h-61v-182h-59v426h144c81 0 133 -49 133 -122c0 -60 -40 -107 -96 -118zM459 509h-85v-136h85c48 0 74 25 74 68c0 45 -25 68 -74 68z" />
    <glyph glyph-name="overscore" unicode="&#xaf;" horiz-adv-x="271" 
d="M256 644h-241v56h241v-56z" />
    <glyph glyph-name="degree" unicode="&#xb0;" horiz-adv-x="352" 
d="M97 513c-20 21 -30 48 -30 80s10 58 30 79c21 21 47 32 79 32s58 -11 78 -32c21 -21 31 -47 31 -79s-10 -59 -31 -80c-20 -21 -46 -31 -78 -31s-58 10 -79 31zM132 638c-23 -23 -23 -67 0 -91c23 -23 65 -23 88 0c23 24 23 68 0 91c-23 24 -65 24 -88 0z" />
    <glyph glyph-name="plusminus" unicode="&#xb1;" horiz-adv-x="541" 
d="M299 426h177v-56h-177v-177h-56v177h-177v56h177v176h56v-176zM476 0h-410v56h410v-56z" />
    <glyph glyph-name="uni00B2" unicode="&#xb2;" horiz-adv-x="381" 
d="M316 300h-251v19l147 183c27 33 40 63 40 90c0 39 -22 62 -62 62c-36 0 -59 -31 -64 -76l-54 14c7 65 53 112 118 112c72 0 116 -45 116 -112c0 -37 -13 -72 -39 -105l-111 -137h160v-50z" />
    <glyph glyph-name="uni00B3" unicode="&#xb3;" horiz-adv-x="385" 
d="M65 413l54 8c5 -47 31 -77 75 -77c48 0 72 35 72 84s-24 81 -72 81c-13 0 -24 -3 -35 -10l-26 35l89 118h-135v48h213v-17l-100 -135c4 1 10 2 18 2c60 0 102 -47 102 -122s-45 -132 -126 -132c-71 0 -122 44 -129 117z" />
    <glyph glyph-name="acute" unicode="&#xb4;" horiz-adv-x="209" 
d="M74 560h-49l70 140h93z" />
    <glyph glyph-name="mu" unicode="&#xb5;" horiz-adv-x="576" 
d="M152 -204h-62v708h62v-338c0 -77 34 -116 103 -116c47 0 85 21 116 64s47 99 47 169v221h62v-504h-62v105c-35 -68 -101 -113 -173 -113c-37 0 -68 9 -93 26v-222z" />
    <glyph glyph-name="mu" unicode="&#x3bc;" horiz-adv-x="576" 
d="M152 -204h-62v708h62v-338c0 -77 34 -116 103 -116c47 0 85 21 116 64s47 99 47 169v221h62v-504h-62v105c-35 -68 -101 -113 -173 -113c-37 0 -68 9 -93 26v-222z" />
    <glyph glyph-name="paragraph" unicode="&#xb6;" horiz-adv-x="651" 
d="M234 700h349v-62h-58v-842h-66v842h-159v-842h-66v558c-48 0 -89 17 -123 50c-33 34 -50 75 -50 123s17 89 50 122c34 34 75 51 123 51z" />
    <glyph glyph-name="middot" unicode="&#xb7;" horiz-adv-x="284" 
d="M91 349c0 29 22 51 51 51s51 -22 51 -51s-22 -51 -51 -51s-51 20 -51 51z" />
    <glyph glyph-name="cedilla" unicode="&#xb8;" horiz-adv-x="175" 
d="M109 -60h55l-81 -154l-72 31z" />
    <glyph glyph-name="uni00B9" unicode="&#xb9;" horiz-adv-x="284" 
d="M60 641l119 59h16v-400h-50v326l-85 -41v56z" />
    <glyph glyph-name="ordmasculine" unicode="&#xba;" horiz-adv-x="512" 
d="M122 357c-34 41 -51 88 -51 143s17 102 51 143s79 61 134 61s100 -20 134 -61s51 -88 51 -143s-17 -102 -51 -143s-79 -61 -134 -61s-100 20 -134 61zM159 610c-23 -31 -34 -67 -34 -110s11 -79 34 -110s56 -46 97 -46s73 15 96 46s35 67 35 110s-12 79 -35 110
s-55 46 -96 46s-74 -15 -97 -46z" />
    <glyph glyph-name="guillemotright" unicode="&#xbb;" horiz-adv-x="604" 
d="M291 526l263 -195v-42l-263 -195v68l198 148l-198 148v68zM60 526l263 -195v-42l-263 -195v68l198 148l-198 148v68z" />
    <glyph glyph-name="onequarter" unicode="&#xbc;" horiz-adv-x="790" 
d="M95 9l542 715l42 -33l-542 -715zM80 641l119 59h16v-400h-50v326l-85 -41v56zM649 0h-50v83h-171v17l162 300h59v-269h52v-48h-52v-83zM599 326l-102 -195h102v195z" />
    <glyph glyph-name="onehalf" unicode="&#xbd;" horiz-adv-x="857" 
d="M95 9l542 715l42 -33l-542 -715zM80 641l119 59h16v-400h-50v326l-85 -41v56zM753 0h-251v19l147 183c27 33 40 63 40 90c0 39 -22 62 -62 62c-36 0 -59 -31 -64 -76l-54 14c7 65 53 112 118 112c72 0 116 -45 116 -112c0 -37 -13 -72 -39 -105l-111 -137h160v-50z" />
    <glyph glyph-name="threequarters" unicode="&#xbe;" horiz-adv-x="840" 
d="M167 9l542 715l42 -33l-542 -715zM65 413l54 8c5 -47 31 -77 75 -77c48 0 72 35 72 84s-24 81 -72 81c-13 0 -24 -3 -35 -10l-26 35l89 118h-135v48h213v-17l-100 -135c4 1 10 2 18 2c60 0 102 -47 102 -122s-45 -132 -126 -132c-71 0 -122 44 -129 117zM694 0h-50v83
h-171v17l162 300h59v-269h52v-48h-52v-83zM644 326l-102 -195h102v195z" />
    <glyph glyph-name="questiondown" unicode="&#xbf;" horiz-adv-x="438" 
d="M249 480c21 -20 21 -58 0 -79c-20 -20 -58 -20 -79 0c-20 21 -20 59 0 79c21 21 59 21 79 0zM135 173l-50 19c19 70 62 105 127 105c69 0 124 -42 124 -121c0 -53 -29 -96 -88 -128l-82 -45c-35 -19 -52 -43 -52 -74c0 -53 35 -85 98 -85c59 0 96 34 113 102l63 -11
c-16 -93 -80 -149 -183 -149c-91 0 -155 57 -155 140c0 51 29 93 87 124l72 39c47 25 65 49 65 89c0 37 -23 61 -60 61c-40 0 -64 -19 -79 -66z" />
    <glyph glyph-name="Agrave" unicode="&#xc0;" horiz-adv-x="584" 
d="M10 0l253 700h58l253 -700h-68l-70 199h-288l-70 -199h-68zM415 261l-123 349l-123 -349h246zM183 896h93l70 -140h-49z" />
    <glyph glyph-name="Aacute" unicode="&#xc1;" horiz-adv-x="584" 
d="M10 0l253 700h58l253 -700h-68l-70 199h-288l-70 -199h-68zM415 261l-123 349l-123 -349h246zM285 756h-49l70 140h93z" />
    <glyph glyph-name="Acircumflex" unicode="&#xc2;" horiz-adv-x="584" 
d="M10 0l253 700h58l253 -700h-68l-70 199h-288l-70 -199h-68zM415 261l-123 349l-123 -349h246zM209 762h-72l144 151h22l144 -151h-72l-83 89z" />
    <glyph glyph-name="Atilde" unicode="&#xc3;" horiz-adv-x="584" 
d="M10 0l253 700h58l253 -700h-68l-70 199h-288l-70 -199h-68zM415 261l-123 349l-123 -349h246zM164 789l-40 31c25 46 58 69 99 69c24 0 48 -7 72 -21c25 -13 44 -20 59 -20c25 0 48 12 67 36l40 -31c-25 -46 -58 -69 -99 -69c-24 0 -48 7 -73 20c-24 14 -43 21 -58 21
c-25 0 -48 -12 -67 -36z" />
    <glyph glyph-name="Adieresis" unicode="&#xc4;" horiz-adv-x="584" 
d="M10 0l253 700h58l253 -700h-68l-70 199h-288l-70 -199h-68zM415 261l-123 349l-123 -349h246zM166 846c0 28 21 50 49 50s49 -22 49 -50c0 -27 -21 -48 -49 -48s-49 21 -49 48zM320 846c0 28 21 50 48 50c28 0 50 -22 50 -50c0 -27 -22 -48 -50 -48c-27 0 -48 21 -48 48z
" />
    <glyph glyph-name="Aring" unicode="&#xc5;" horiz-adv-x="584" 
d="M10 0l253 700h58l253 -700h-68l-70 199h-288l-70 -199h-68zM415 261l-123 349l-123 -349h246zM198 849c0 55 42 98 97 98c56 0 97 -42 97 -98c0 -53 -41 -94 -97 -94c-55 0 -97 41 -97 94zM295 798c31 0 51 21 51 52c0 32 -20 54 -51 54c-29 0 -51 -23 -51 -54
s22 -52 51 -52z" />
    <glyph glyph-name="AE" unicode="&#xc6;" horiz-adv-x="821" 
d="M7 0l307 700h435v-62h-329v-234h269v-62h-269v-280h339v-62h-405v199h-191l-87 -199h-69zM354 610h-11l-153 -349h164v349z" />
    <glyph glyph-name="Ccedilla" unicode="&#xc7;" horiz-adv-x="680" 
d="M567 211l65 -19c-36 -124 -132 -200 -264 -200c-85 0 -158 31 -219 93c-60 62 -90 150 -90 265c0 117 37 214 96 270c59 57 133 88 213 88c132 0 228 -76 264 -200l-65 -19c-27 100 -95 157 -199 157c-72 0 -130 -26 -174 -78s-66 -125 -66 -218s22 -166 66 -218
s102 -78 174 -78c104 0 172 57 199 157zM370 -60h55l-81 -154l-72 31z" />
    <glyph glyph-name="Egrave" unicode="&#xc8;" horiz-adv-x="568" 
d="M101 0v700h395v-62h-329v-234h269v-62h-269v-280h339v-62h-405zM199 896h93l70 -140h-49z" />
    <glyph glyph-name="Eacute" unicode="&#xc9;" horiz-adv-x="568" 
d="M101 0v700h395v-62h-329v-234h269v-62h-269v-280h339v-62h-405zM295 756h-49l70 140h93z" />
    <glyph glyph-name="Ecircumflex" unicode="&#xca;" horiz-adv-x="568" 
d="M101 0v700h395v-62h-329v-234h269v-62h-269v-280h339v-62h-405zM215 762h-72l144 151h22l144 -151h-72l-83 89z" />
    <glyph glyph-name="Edieresis" unicode="&#xcb;" horiz-adv-x="568" 
d="M101 0v700h395v-62h-329v-234h269v-62h-269v-280h339v-62h-405zM183 846c0 28 21 50 49 50s49 -22 49 -50c0 -27 -21 -48 -49 -48s-49 21 -49 48zM337 846c0 28 21 50 48 50c28 0 50 -22 50 -50c0 -27 -22 -48 -50 -48c-27 0 -48 21 -48 48z" />
    <glyph glyph-name="Igrave" unicode="&#xcc;" horiz-adv-x="268" 
d="M101 700h66v-700h-66v700zM25 896h93l70 -140h-49z" />
    <glyph glyph-name="Iacute" unicode="&#xcd;" horiz-adv-x="268" 
d="M101 700h66v-700h-66v700zM134 756h-49l70 140h93z" />
    <glyph glyph-name="Icircumflex" unicode="&#xce;" horiz-adv-x="268" 
d="M101 700h66v-700h-66v700zM51 762h-72l144 151h22l144 -151h-72l-83 89z" />
    <glyph glyph-name="Idieresis" unicode="&#xcf;" horiz-adv-x="268" 
d="M101 700h66v-700h-66v700zM8 846c0 28 21 50 49 50s49 -22 49 -50c0 -27 -21 -48 -49 -48s-49 21 -49 48zM162 846c0 28 21 50 48 50c28 0 50 -22 50 -50c0 -27 -22 -48 -50 -48c-27 0 -48 21 -48 48z" />
    <glyph glyph-name="Eth" unicode="&#xd0;" horiz-adv-x="687" 
d="M126 319h-84v62h84v319h184c92 0 168 -32 228 -95s90 -148 90 -255s-30 -193 -90 -256s-136 -94 -228 -94h-184v319zM311 638h-119v-257h84v-62h-84v-257h119c70 0 129 24 176 73c48 49 72 120 72 215s-24 166 -72 215c-47 49 -106 73 -176 73z" />
    <glyph glyph-name="Ntilde" unicode="&#xd1;" horiz-adv-x="693" 
d="M526 105v595h66v-700h-78l-347 593v-593h-66v700h78zM213 789l-40 31c25 46 58 69 99 69c24 0 48 -7 72 -21c25 -13 44 -20 59 -20c25 0 48 12 67 36l40 -31c-25 -46 -58 -69 -99 -69c-24 0 -48 7 -73 20c-24 14 -43 21 -58 21c-25 0 -48 -12 -67 -36z" />
    <glyph glyph-name="Ograve" unicode="&#xd2;" horiz-adv-x="732" 
d="M148 609c60 66 133 99 218 99s158 -33 217 -99c60 -65 90 -152 90 -259s-30 -194 -90 -260c-59 -65 -132 -98 -217 -98s-158 33 -218 98c-59 66 -89 153 -89 260s30 194 89 259zM536 568c-45 52 -101 78 -170 78s-126 -26 -171 -78c-45 -51 -67 -124 -67 -218
s22 -167 67 -219c45 -51 102 -77 171 -77s125 26 170 77c45 52 68 125 68 219s-23 167 -68 218zM247 896h93l70 -140h-49z" />
    <glyph glyph-name="Oacute" unicode="&#xd3;" horiz-adv-x="732" 
d="M148 609c60 66 133 99 218 99s158 -33 217 -99c60 -65 90 -152 90 -259s-30 -194 -90 -260c-59 -65 -132 -98 -217 -98s-158 33 -218 98c-59 66 -89 153 -89 260s30 194 89 259zM536 568c-45 52 -101 78 -170 78s-126 -26 -171 -78c-45 -51 -67 -124 -67 -218
s22 -167 67 -219c45 -51 102 -77 171 -77s125 26 170 77c45 52 68 125 68 219s-23 167 -68 218zM336 756h-49l70 140h93z" />
    <glyph glyph-name="Ocircumflex" unicode="&#xd4;" horiz-adv-x="732" 
d="M148 609c60 66 133 99 218 99s158 -33 217 -99c60 -65 90 -152 90 -259s-30 -194 -90 -260c-59 -65 -132 -98 -217 -98s-158 33 -218 98c-59 66 -89 153 -89 260s30 194 89 259zM536 568c-45 52 -101 78 -170 78s-126 -26 -171 -78c-45 -51 -67 -124 -67 -218
s22 -167 67 -219c45 -51 102 -77 171 -77s125 26 170 77c45 52 68 125 68 219s-23 167 -68 218zM283 762h-72l144 151h22l144 -151h-72l-83 89z" />
    <glyph glyph-name="Otilde" unicode="&#xd5;" horiz-adv-x="732" 
d="M148 609c60 66 133 99 218 99s158 -33 217 -99c60 -65 90 -152 90 -259s-30 -194 -90 -260c-59 -65 -132 -98 -217 -98s-158 33 -218 98c-59 66 -89 153 -89 260s30 194 89 259zM536 568c-45 52 -101 78 -170 78s-126 -26 -171 -78c-45 -51 -67 -124 -67 -218
s22 -167 67 -219c45 -51 102 -77 171 -77s125 26 170 77c45 52 68 125 68 219s-23 167 -68 218zM238 789l-40 31c25 46 58 69 99 69c24 0 48 -7 72 -21c25 -13 44 -20 59 -20c25 0 48 12 67 36l40 -31c-25 -46 -58 -69 -99 -69c-24 0 -48 7 -73 20c-24 14 -43 21 -58 21
c-25 0 -48 -12 -67 -36z" />
    <glyph glyph-name="Odieresis" unicode="&#xd6;" horiz-adv-x="732" 
d="M148 609c60 66 133 99 218 99s158 -33 217 -99c60 -65 90 -152 90 -259s-30 -194 -90 -260c-59 -65 -132 -98 -217 -98s-158 33 -218 98c-59 66 -89 153 -89 260s30 194 89 259zM536 568c-45 52 -101 78 -170 78s-126 -26 -171 -78c-45 -51 -67 -124 -67 -218
s22 -167 67 -219c45 -51 102 -77 171 -77s125 26 170 77c45 52 68 125 68 219s-23 167 -68 218zM240 846c0 28 21 50 49 50s49 -22 49 -50c0 -27 -21 -48 -49 -48s-49 21 -49 48zM394 846c0 28 21 50 48 50c28 0 50 -22 50 -50c0 -27 -22 -48 -50 -48c-27 0 -48 21 -48 48z
" />
    <glyph glyph-name="multiply" unicode="&#xd7;" horiz-adv-x="524" 
d="M301 316l154 -154l-40 -39l-153 153l-154 -153l-39 39l153 154l-153 153l39 40l154 -154l152 153l40 -40z" />
    <glyph glyph-name="Oslash" unicode="&#xd8;" horiz-adv-x="732" 
d="M553 640l59 76l46 -35l-64 -83c53 -65 79 -148 79 -248c0 -107 -30 -194 -90 -260c-59 -65 -132 -98 -217 -98c-71 0 -134 23 -187 68l-59 -76l-46 35l64 83c-53 65 -79 148 -79 248c0 107 30 194 89 259c60 66 133 99 218 99c71 0 134 -23 187 -68zM366 646
c-69 0 -126 -26 -171 -78c-45 -51 -67 -124 -67 -218c0 -79 17 -145 50 -196l337 437c-41 37 -90 55 -149 55zM604 350c0 79 -17 145 -50 196l-337 -437c41 -37 90 -55 149 -55c69 0 125 26 170 77c45 52 68 125 68 219z" />
    <glyph glyph-name="Ugrave" unicode="&#xd9;" horiz-adv-x="654" 
d="M87 224v476h66v-482c0 -93 62 -164 174 -164s174 71 174 164v482h66v-476c0 -73 -23 -130 -70 -171c-46 -41 -103 -61 -170 -61s-124 20 -171 61c-46 41 -69 98 -69 171zM215 896h93l70 -140h-49z" />
    <glyph glyph-name="Uacute" unicode="&#xda;" horiz-adv-x="654" 
d="M87 224v476h66v-482c0 -93 62 -164 174 -164s174 71 174 164v482h66v-476c0 -73 -23 -130 -70 -171c-46 -41 -103 -61 -170 -61s-124 20 -171 61c-46 41 -69 98 -69 171zM318 756h-49l70 140h93z" />
    <glyph glyph-name="Ucircumflex" unicode="&#xdb;" horiz-adv-x="654" 
d="M87 224v476h66v-482c0 -93 62 -164 174 -164s174 71 174 164v482h66v-476c0 -73 -23 -130 -70 -171c-46 -41 -103 -61 -170 -61s-124 20 -171 61c-46 41 -69 98 -69 171zM243 762h-72l144 151h22l144 -151h-72l-83 89z" />
    <glyph glyph-name="Udieresis" unicode="&#xdc;" horiz-adv-x="654" 
d="M87 224v476h66v-482c0 -93 62 -164 174 -164s174 71 174 164v482h66v-476c0 -73 -23 -130 -70 -171c-46 -41 -103 -61 -170 -61s-124 20 -171 61c-46 41 -69 98 -69 171zM201 846c0 28 21 50 49 50s49 -22 49 -50c0 -27 -21 -48 -49 -48s-49 21 -49 48zM355 846
c0 28 21 50 48 50c28 0 50 -22 50 -50c0 -27 -22 -48 -50 -48c-27 0 -48 21 -48 48z" />
    <glyph glyph-name="Yacute" unicode="&#xdd;" horiz-adv-x="500" 
d="M217 0v304l-211 396h77l167 -331l167 331h77l-211 -396v-304h-66zM237 756h-49l70 140h93z" />
    <glyph glyph-name="Thorn" unicode="&#xde;" horiz-adv-x="578" 
d="M339 157h-172v-157h-66v700h66v-157h172c125 0 202 -73 202 -193s-77 -193 -202 -193zM167 219h173c91 0 132 51 132 131s-41 131 -132 131h-173v-262z" />
    <glyph glyph-name="germandbls" unicode="&#xdf;" horiz-adv-x="557" 
d="M94 354h-54v56h54v78c0 141 77 220 185 220c112 0 183 -72 183 -173c0 -75 -40 -136 -95 -149c38 -9 71 -30 99 -61s42 -70 42 -117c0 -137 -84 -216 -212 -216c-26 0 -51 2 -76 7v58c23 -5 47 -7 70 -7c100 0 154 56 154 152c0 100 -70 152 -173 152h-32v56h38
c79 0 125 47 125 120c0 75 -50 120 -123 120c-75 0 -121 -56 -121 -163v-487h-64v354z" />
    <glyph glyph-name="agrave" unicode="&#xe0;" horiz-adv-x="506" 
d="M122 145c0 -61 37 -95 98 -95c39 0 74 15 105 45c32 30 48 76 48 138v19h-82c-112 0 -169 -39 -169 -107zM435 334v-334h-47l-15 78c-33 -57 -86 -86 -159 -86c-92 0 -157 49 -157 153c0 109 87 165 232 165h84v22c0 84 -44 122 -116 122c-61 0 -101 -31 -120 -94l-60 14
c13 84 88 138 180 138c51 0 94 -16 127 -48c34 -31 51 -75 51 -130zM151 700h93l70 -140h-49z" />
    <glyph glyph-name="aacute" unicode="&#xe1;" horiz-adv-x="506" 
d="M122 145c0 -61 37 -95 98 -95c39 0 74 15 105 45c32 30 48 76 48 138v19h-82c-112 0 -169 -39 -169 -107zM435 334v-334h-47l-15 78c-33 -57 -86 -86 -159 -86c-92 0 -157 49 -157 153c0 109 87 165 232 165h84v22c0 84 -44 122 -116 122c-61 0 -101 -31 -120 -94l-60 14
c13 84 88 138 180 138c51 0 94 -16 127 -48c34 -31 51 -75 51 -130zM253 560h-49l70 140h93z" />
    <glyph glyph-name="acircumflex" unicode="&#xe2;" horiz-adv-x="506" 
d="M122 145c0 -61 37 -95 98 -95c39 0 74 15 105 45c32 30 48 76 48 138v19h-82c-112 0 -169 -39 -169 -107zM435 334v-334h-47l-15 78c-33 -57 -86 -86 -159 -86c-92 0 -157 49 -157 153c0 109 87 165 232 165h84v22c0 84 -44 122 -116 122c-61 0 -101 -31 -120 -94l-60 14
c13 84 88 138 180 138c51 0 94 -16 127 -48c34 -31 51 -75 51 -130zM178 566h-72l144 151h22l144 -151h-72l-83 89z" />
    <glyph glyph-name="atilde" unicode="&#xe3;" horiz-adv-x="506" 
d="M122 145c0 -61 37 -95 98 -95c39 0 74 15 105 45c32 30 48 76 48 138v19h-82c-112 0 -169 -39 -169 -107zM435 334v-334h-47l-15 78c-33 -57 -86 -86 -159 -86c-92 0 -157 49 -157 153c0 109 87 165 232 165h84v22c0 84 -44 122 -116 122c-61 0 -101 -31 -120 -94l-60 14
c13 84 88 138 180 138c51 0 94 -16 127 -48c34 -31 51 -75 51 -130zM133 593l-40 31c25 46 58 69 99 69c24 0 48 -7 72 -21c25 -13 44 -20 59 -20c25 0 48 12 67 36l40 -31c-25 -46 -58 -69 -99 -69c-24 0 -48 7 -73 20c-24 14 -43 21 -58 21c-25 0 -48 -12 -67 -36z" />
    <glyph glyph-name="adieresis" unicode="&#xe4;" horiz-adv-x="506" 
d="M122 145c0 -61 37 -95 98 -95c39 0 74 15 105 45c32 30 48 76 48 138v19h-82c-112 0 -169 -39 -169 -107zM435 334v-334h-47l-15 78c-33 -57 -86 -86 -159 -86c-92 0 -157 49 -157 153c0 109 87 165 232 165h84v22c0 84 -44 122 -116 122c-61 0 -101 -31 -120 -94l-60 14
c13 84 88 138 180 138c51 0 94 -16 127 -48c34 -31 51 -75 51 -130zM134 650c0 28 21 50 49 50s49 -22 49 -50c0 -27 -21 -48 -49 -48s-49 21 -49 48zM288 650c0 28 21 50 48 50c28 0 50 -22 50 -50c0 -27 -22 -48 -50 -48c-27 0 -48 21 -48 48z" />
    <glyph glyph-name="aring" unicode="&#xe5;" horiz-adv-x="506" 
d="M122 145c0 -61 37 -95 98 -95c39 0 74 15 105 45c32 30 48 76 48 138v19h-82c-112 0 -169 -39 -169 -107zM435 334v-334h-47l-15 78c-33 -57 -86 -86 -159 -86c-92 0 -157 49 -157 153c0 109 87 165 232 165h84v22c0 84 -44 122 -116 122c-61 0 -101 -31 -120 -94l-60 14
c13 84 88 138 180 138c51 0 94 -16 127 -48c34 -31 51 -75 51 -130zM160 653c0 55 42 98 97 98c56 0 97 -42 97 -98c0 -53 -41 -94 -97 -94c-55 0 -97 41 -97 94zM257 602c31 0 51 21 51 52c0 32 -20 54 -51 54c-29 0 -51 -23 -51 -54s22 -52 51 -52z" />
    <glyph glyph-name="ae" unicode="&#xe6;" horiz-adv-x="869" 
d="M818 280v-28h-380c0 -120 60 -202 159 -202c75 0 121 33 154 104l56 -23c-51 -100 -114 -139 -210 -139c-89 0 -163 50 -195 127c-31 -85 -101 -127 -188 -127c-92 0 -157 49 -157 153c0 109 87 165 232 165h84v22c0 84 -44 122 -116 122c-61 0 -101 -31 -120 -94l-60 14
c13 84 88 138 180 138c75 0 136 -37 163 -97c42 65 101 97 177 97c65 0 118 -21 159 -64s62 -99 62 -168zM122 145c0 -61 37 -95 98 -95c39 0 74 15 105 45c32 30 48 76 48 138v19h-82c-112 0 -169 -39 -169 -107zM597 454c-81 0 -138 -59 -155 -144h312
c-12 89 -68 144 -157 144z" />
    <glyph glyph-name="ccedilla" unicode="&#xe7;" horiz-adv-x="528" 
d="M426 153l56 -22c-35 -93 -103 -139 -203 -139c-70 0 -125 25 -164 76s-59 113 -59 184s20 132 59 183s94 77 164 77c100 0 168 -46 203 -139l-56 -22c-28 69 -77 103 -147 103c-51 0 -91 -19 -118 -58c-27 -38 -40 -86 -40 -144s13 -106 40 -145c27 -38 67 -57 118 -57
c70 0 119 34 147 103zM282 -60h55l-81 -154l-72 31z" />
    <glyph glyph-name="egrave" unicode="&#xe8;" horiz-adv-x="552" 
d="M501 280v-28h-380c0 -120 60 -202 159 -202c76 0 118 31 155 108l55 -27c-51 -100 -114 -139 -210 -139c-67 0 -121 24 -162 73s-62 112 -62 187s21 137 62 186s95 74 162 74c65 0 118 -21 159 -64s62 -99 62 -168zM280 454c-81 0 -138 -59 -155 -144h312
c-12 89 -68 144 -157 144zM181 700h93l70 -140h-49z" />
    <glyph glyph-name="eacute" unicode="&#xe9;" horiz-adv-x="552" 
d="M501 280v-28h-380c0 -120 60 -202 159 -202c76 0 118 31 155 108l55 -27c-51 -100 -114 -139 -210 -139c-67 0 -121 24 -162 73s-62 112 -62 187s21 137 62 186s95 74 162 74c65 0 118 -21 159 -64s62 -99 62 -168zM280 454c-81 0 -138 -59 -155 -144h312
c-12 89 -68 144 -157 144zM254 560h-49l70 140h93z" />
    <glyph glyph-name="ecircumflex" unicode="&#xea;" horiz-adv-x="552" 
d="M501 280v-28h-380c0 -120 60 -202 159 -202c76 0 118 31 155 108l55 -27c-51 -100 -114 -139 -210 -139c-67 0 -121 24 -162 73s-62 112 -62 187s21 137 62 186s95 74 162 74c65 0 118 -21 159 -64s62 -99 62 -168zM280 454c-81 0 -138 -59 -155 -144h312
c-12 89 -68 144 -157 144zM197 566h-72l144 151h22l144 -151h-72l-83 89z" />
    <glyph glyph-name="edieresis" unicode="&#xeb;" horiz-adv-x="552" 
d="M501 280v-28h-380c0 -120 60 -202 159 -202c76 0 118 31 155 108l55 -27c-51 -100 -114 -139 -210 -139c-67 0 -121 24 -162 73s-62 112 -62 187s21 137 62 186s95 74 162 74c65 0 118 -21 159 -64s62 -99 62 -168zM280 454c-81 0 -138 -59 -155 -144h312
c-12 89 -68 144 -157 144zM160 650c0 28 21 50 49 50s49 -22 49 -50c0 -27 -21 -48 -49 -48s-49 21 -49 48zM314 650c0 28 21 50 48 50c28 0 50 -22 50 -50c0 -27 -22 -48 -50 -48c-27 0 -48 21 -48 48z" />
    <glyph glyph-name="igrave" unicode="&#xec;" horiz-adv-x="280" 
d="M110 0v504h62v-504h-62zM27 700h93l70 -140h-49z" />
    <glyph glyph-name="iacute" unicode="&#xed;" horiz-adv-x="280" 
d="M110 0v504h62v-504h-62zM146 560h-49l70 140h93z" />
    <glyph glyph-name="icircumflex" unicode="&#xee;" horiz-adv-x="280" 
d="M110 0v504h62v-504h-62zM57 566h-72l144 151h22l144 -151h-72l-83 89z" />
    <glyph glyph-name="idieresis" unicode="&#xef;" horiz-adv-x="280" 
d="M110 0v504h62v-504h-62zM16 650c0 28 21 50 49 50s49 -22 49 -50c0 -27 -21 -48 -49 -48s-49 21 -49 48zM170 650c0 28 21 50 48 50c28 0 50 -22 50 -50c0 -27 -22 -48 -50 -48c-27 0 -48 21 -48 48z" />
    <glyph glyph-name="eth" unicode="&#xf0;" horiz-adv-x="574" 
d="M289 616l-44 -65l-42 30l44 64c-27 17 -54 31 -81 42l29 43c29 -13 57 -27 82 -41l38 56l42 -30l-37 -54c136 -93 198 -224 198 -409c0 -70 -21 -131 -63 -183c-42 -51 -98 -77 -168 -77s-126 26 -168 77c-42 52 -63 113 -63 183s21 131 63 182c42 52 98 78 168 78
c56 0 101 -19 136 -57c-18 53 -63 107 -134 161zM164 394c-29 -39 -43 -87 -43 -142s14 -103 43 -143c29 -39 70 -59 123 -59s94 20 123 59c29 40 43 88 43 143s-14 103 -43 142c-29 40 -70 60 -123 60s-94 -20 -123 -60z" />
    <glyph glyph-name="ntilde" unicode="&#xf1;" horiz-adv-x="576" 
d="M486 346v-346h-62v338c0 77 -34 116 -103 116c-47 0 -86 -21 -117 -64s-46 -99 -46 -169v-221h-62v504h62v-105c35 68 101 113 173 113c96 0 155 -61 155 -166zM167 593l-40 31c25 46 58 69 99 69c24 0 48 -7 72 -21c25 -13 44 -20 59 -20c25 0 48 12 67 36l40 -31
c-25 -46 -58 -69 -99 -69c-24 0 -48 7 -73 20c-24 14 -43 21 -58 21c-25 0 -48 -12 -67 -36z" />
    <glyph glyph-name="ograve" unicode="&#xf2;" horiz-adv-x="584" 
d="M121 70c-43 52 -65 113 -65 182s22 130 65 182s100 78 171 78s128 -26 171 -78s65 -113 65 -182s-22 -130 -65 -182s-100 -78 -171 -78s-128 26 -171 78zM166 394c-30 -40 -45 -87 -45 -142s15 -102 45 -142c31 -40 73 -60 126 -60s95 20 125 60c31 40 46 87 46 142
s-15 102 -46 142c-30 40 -72 60 -125 60s-95 -20 -126 -60zM185 700h93l70 -140h-49z" />
    <glyph glyph-name="oacute" unicode="&#xf3;" horiz-adv-x="584" 
d="M121 70c-43 52 -65 113 -65 182s22 130 65 182s100 78 171 78s128 -26 171 -78s65 -113 65 -182s-22 -130 -65 -182s-100 -78 -171 -78s-128 26 -171 78zM166 394c-30 -40 -45 -87 -45 -142s15 -102 45 -142c31 -40 73 -60 126 -60s95 20 125 60c31 40 46 87 46 142
s-15 102 -46 142c-30 40 -72 60 -125 60s-95 -20 -126 -60zM267 560h-49l70 140h93z" />
    <glyph glyph-name="ocircumflex" unicode="&#xf4;" horiz-adv-x="584" 
d="M121 70c-43 52 -65 113 -65 182s22 130 65 182s100 78 171 78s128 -26 171 -78s65 -113 65 -182s-22 -130 -65 -182s-100 -78 -171 -78s-128 26 -171 78zM166 394c-30 -40 -45 -87 -45 -142s15 -102 45 -142c31 -40 73 -60 126 -60s95 20 125 60c31 40 46 87 46 142
s-15 102 -46 142c-30 40 -72 60 -125 60s-95 -20 -126 -60zM209 566h-72l144 151h22l144 -151h-72l-83 89z" />
    <glyph glyph-name="otilde" unicode="&#xf5;" horiz-adv-x="584" 
d="M121 70c-43 52 -65 113 -65 182s22 130 65 182s100 78 171 78s128 -26 171 -78s65 -113 65 -182s-22 -130 -65 -182s-100 -78 -171 -78s-128 26 -171 78zM166 394c-30 -40 -45 -87 -45 -142s15 -102 45 -142c31 -40 73 -60 126 -60s95 20 125 60c31 40 46 87 46 142
s-15 102 -46 142c-30 40 -72 60 -125 60s-95 -20 -126 -60zM164 593l-40 31c25 46 58 69 99 69c24 0 48 -7 72 -21c25 -13 44 -20 59 -20c25 0 48 12 67 36l40 -31c-25 -46 -58 -69 -99 -69c-24 0 -48 7 -73 20c-24 14 -43 21 -58 21c-25 0 -48 -12 -67 -36z" />
    <glyph glyph-name="odieresis" unicode="&#xf6;" horiz-adv-x="584" 
d="M121 70c-43 52 -65 113 -65 182s22 130 65 182s100 78 171 78s128 -26 171 -78s65 -113 65 -182s-22 -130 -65 -182s-100 -78 -171 -78s-128 26 -171 78zM166 394c-30 -40 -45 -87 -45 -142s15 -102 45 -142c31 -40 73 -60 126 -60s95 20 125 60c31 40 46 87 46 142
s-15 102 -46 142c-30 40 -72 60 -125 60s-95 -20 -126 -60zM166 650c0 28 21 50 49 50s49 -22 49 -50c0 -27 -21 -48 -49 -48s-49 21 -49 48zM320 650c0 28 21 50 48 50c28 0 50 -22 50 -50c0 -27 -22 -48 -50 -48c-27 0 -48 21 -48 48z" />
    <glyph glyph-name="divide" unicode="&#xf7;" horiz-adv-x="510" 
d="M217 97c-19 20 -19 54 0 73c20 20 54 20 73 0c20 -19 20 -53 0 -73c-19 -19 -53 -19 -73 0zM217 463c-19 20 -19 54 0 73c20 20 54 20 73 0c20 -19 20 -53 0 -73c-19 -19 -53 -19 -73 0zM460 289h-410v56h410v-56z" />
    <glyph glyph-name="oslash" unicode="&#xf8;" horiz-adv-x="584" 
d="M56 252c0 69 22 130 65 182s100 78 171 78c51 0 96 -14 134 -43l56 71l46 -35l-60 -76c40 -49 60 -108 60 -177s-22 -130 -65 -182s-100 -78 -171 -78c-51 0 -96 14 -134 43l-56 -71l-46 35l60 76c-40 49 -60 108 -60 177zM463 252c0 49 -11 92 -34 127l-235 -297
c28 -21 61 -32 98 -32c53 0 95 20 125 60c31 40 46 87 46 142zM121 252c0 -49 11 -92 34 -127l235 297c-28 21 -61 32 -98 32c-53 0 -95 -20 -126 -60c-30 -40 -45 -87 -45 -142z" />
    <glyph glyph-name="ugrave" unicode="&#xf9;" 
d="M90 158v346h62v-338c0 -77 34 -116 103 -116c47 0 85 21 116 64s47 99 47 169v221h62v-504h-62v105c-35 -68 -101 -113 -173 -113c-96 0 -155 61 -155 166zM192 700h93l70 -140h-49z" />
    <glyph glyph-name="uacute" unicode="&#xfa;" 
d="M90 158v346h62v-338c0 -77 34 -116 103 -116c47 0 85 21 116 64s47 99 47 169v221h62v-504h-62v105c-35 -68 -101 -113 -173 -113c-96 0 -155 61 -155 166zM265 560h-49l70 140h93z" />
    <glyph glyph-name="ucircumflex" unicode="&#xfb;" 
d="M90 158v346h62v-338c0 -77 34 -116 103 -116c47 0 85 21 116 64s47 99 47 169v221h62v-504h-62v105c-35 -68 -101 -113 -173 -113c-96 0 -155 61 -155 166zM204 566h-72l144 151h22l144 -151h-72l-83 89z" />
    <glyph glyph-name="udieresis" unicode="&#xfc;" 
d="M90 158v346h62v-338c0 -77 34 -116 103 -116c47 0 85 21 116 64s47 99 47 169v221h62v-504h-62v105c-35 -68 -101 -113 -173 -113c-96 0 -155 61 -155 166zM163 650c0 28 21 50 49 50s49 -22 49 -50c0 -27 -21 -48 -49 -48s-49 21 -49 48zM317 650c0 28 21 50 48 50
c28 0 50 -22 50 -50c0 -27 -22 -48 -50 -48c-27 0 -48 21 -48 48z" />
    <glyph glyph-name="yacute" unicode="&#xfd;" horiz-adv-x="452" 
d="M232 96l140 408h65l-250 -708h-62l73 207l-181 501h65zM222 560h-49l70 140h93z" />
    <glyph glyph-name="thorn" unicode="&#xfe;" horiz-adv-x="599" 
d="M97 -204v912h64v-275c36 47 102 79 157 79c71 0 126 -25 165 -74c40 -49 60 -111 60 -186s-20 -138 -60 -187c-39 -49 -94 -73 -165 -73c-64 0 -130 34 -157 74v-270h-64zM478 252c0 59 -14 107 -43 145s-69 57 -120 57s-91 -19 -120 -57c-28 -38 -42 -86 -42 -145
c0 -119 58 -202 162 -202s163 83 163 202z" />
    <glyph glyph-name="ydieresis" unicode="&#xff;" horiz-adv-x="452" 
d="M232 96l140 408h65l-250 -708h-62l73 207l-181 501h65zM106 650c0 28 21 50 49 50s49 -22 49 -50c0 -27 -21 -48 -49 -48s-49 21 -49 48zM260 650c0 28 21 50 48 50c28 0 50 -22 50 -50c0 -27 -22 -48 -50 -48c-27 0 -48 21 -48 48z" />
    <glyph glyph-name="dotlessi" unicode="&#x131;" horiz-adv-x="280" 
d="M109 0v504h62v-504h-62z" />
    <glyph glyph-name="Lslash" unicode="&#x141;" horiz-adv-x="515" 
d="M101 340v360h66v-323l128 74l27 -47l-155 -89v-253h328v-62h-394v278l-72 -42l-24 47z" />
    <glyph glyph-name="lslash" unicode="&#x142;" horiz-adv-x="324" 
d="M128 317l-77 -43l-27 47l104 58v329h62v-295l77 43l27 -47l-104 -58v-351h-62v317z" />
    <glyph glyph-name="OE" unicode="&#x152;" horiz-adv-x="1074" 
d="M607 580v120h395v-62h-329v-234h269v-62h-269v-280h339v-62h-405v120c-56 -81 -145 -128 -241 -128c-85 0 -158 33 -218 98c-59 66 -89 153 -89 260s30 194 89 259c60 66 133 99 218 99c96 0 185 -47 241 -128zM536 568c-45 52 -101 78 -170 78s-126 -26 -171 -78
c-45 -51 -67 -124 -67 -218s22 -167 67 -219c45 -51 102 -77 171 -77s125 26 170 77c45 52 68 125 68 219s-23 167 -68 218z" />
    <glyph glyph-name="oe" unicode="&#x153;" horiz-adv-x="959" 
d="M908 280v-28h-380v-9c3 -116 62 -193 159 -193c75 0 121 33 154 104l56 -23c-51 -100 -114 -139 -210 -139c-87 0 -157 46 -194 122c-41 -75 -112 -122 -201 -122c-71 0 -128 26 -171 78s-65 113 -65 182s22 130 65 182s100 78 171 78c89 0 160 -47 201 -122
c37 76 107 122 194 122c65 0 118 -21 159 -64s62 -99 62 -168zM166 394c-30 -40 -45 -87 -45 -142s15 -102 45 -142c31 -40 73 -60 126 -60s95 20 125 60c31 40 46 87 46 142s-15 102 -46 142c-30 40 -72 60 -125 60s-95 -20 -126 -60zM687 454c-81 0 -137 -59 -154 -144
h311c-12 89 -68 144 -157 144z" />
    <glyph glyph-name="Scaron" unicode="&#x160;" horiz-adv-x="506" 
d="M418 600l-54 -34c-28 53 -67 80 -116 80c-61 0 -97 -49 -97 -102c0 -63 48 -103 108 -131c30 -13 60 -28 89 -43c60 -29 108 -88 108 -173c0 -62 -19 -112 -57 -149c-37 -37 -85 -56 -143 -56c-113 0 -190 76 -214 189l57 34c28 -100 69 -161 157 -161
c79 0 131 50 131 141c0 64 -47 107 -107 135c-85 39 -197 85 -195 206c0 51 16 92 47 124c32 32 71 48 116 48c32 0 59 -5 82 -16c47 -21 61 -44 88 -92zM263 762h-22l-144 151h72l83 -89l83 89h72z" />
    <glyph glyph-name="scaron" unicode="&#x161;" horiz-adv-x="450" 
d="M230 512c57 0 103 -26 140 -78l-44 -38c-29 39 -62 58 -99 58c-44 0 -74 -31 -74 -76c0 -37 37 -64 84 -83c68 -27 155 -60 155 -145c0 -97 -60 -158 -156 -158c-99 0 -159 62 -182 138l55 29c25 -69 59 -109 127 -109c59 0 91 34 91 90c0 41 -37 71 -84 88
c-68 27 -154 55 -154 149c0 80 60 135 141 135zM241 566h-22l-144 151h72l83 -89l83 89h72z" />
    <glyph glyph-name="Ydieresis" unicode="&#x178;" horiz-adv-x="500" 
d="M217 0v304l-211 396h77l167 -331l167 331h77l-211 -396v-304h-66zM124 846c0 28 21 50 49 50s49 -22 49 -50c0 -27 -21 -48 -49 -48s-49 21 -49 48zM278 846c0 28 21 50 48 50c28 0 50 -22 50 -50c0 -27 -22 -48 -50 -48c-27 0 -48 21 -48 48z" />
    <glyph glyph-name="Zcaron" unicode="&#x17d;" horiz-adv-x="548" 
d="M400 638h-340v62h428v-32l-348 -606h355v-62h-447v32zM293 762h-22l-144 151h72l83 -89l83 89h72z" />
    <glyph glyph-name="zcaron" unicode="&#x17e;" horiz-adv-x="456" 
d="M313 446h-245v58h327v-34l-254 -412h265v-58h-350v30zM240 566h-22l-144 151h72l83 -89l83 89h72z" />
    <glyph glyph-name="florin" unicode="&#x192;" horiz-adv-x="468" 
d="M205 446h-90l12 58h90l6 32c23 124 83 172 186 172c26 0 46 -4 61 -13l-24 -57c-15 8 -31 12 -50 12c-59 0 -95 -35 -109 -104l-8 -42h122l-12 -58h-122l-94 -486c-24 -125 -81 -172 -182 -172c-29 0 -50 4 -65 13l24 57c16 -8 33 -12 50 -12c63 0 94 32 109 104z" />
    <glyph glyph-name="circumflex" unicode="&#x2c6;" horiz-adv-x="370" 
d="M102 566h-72l144 151h22l144 -151h-72l-83 89z" />
    <glyph glyph-name="caron" unicode="&#x2c7;" horiz-adv-x="370" 
d="M196 566h-22l-144 151h72l83 -89l83 89h72z" />
    <glyph glyph-name="breve" unicode="&#x2d8;" horiz-adv-x="239" 
d="M170 700h51c0 -65 -40 -109 -105 -109c-64 0 -105 44 -105 109h51c0 -35 19 -59 54 -59c36 0 54 20 54 59z" />
    <glyph glyph-name="dotaccent" unicode="&#x2d9;" horiz-adv-x="250" 
d="M88 612c-19 20 -19 54 0 73c20 20 54 20 73 0c20 -19 20 -53 0 -73c-19 -19 -53 -19 -73 0z" />
    <glyph glyph-name="ring" unicode="&#x2da;" horiz-adv-x="234" 
d="M20 653c0 55 42 98 97 98c56 0 97 -42 97 -98c0 -53 -41 -94 -97 -94c-55 0 -97 41 -97 94zM117 602c31 0 51 21 51 52c0 32 -20 54 -51 54c-29 0 -51 -23 -51 -54s22 -52 51 -52z" />
    <glyph glyph-name="ogonek" unicode="&#x2db;" horiz-adv-x="208" 
d="M69 -60h55c-37 -34 -56 -61 -56 -80c0 -22 11 -33 33 -33c17 0 36 14 57 42l39 -31c-36 -48 -62 -67 -106 -67c-48 0 -79 30 -79 77c0 35 19 65 57 92z" />
    <glyph glyph-name="tilde" unicode="&#x2dc;" horiz-adv-x="377" 
d="M60 593l-40 31c25 46 58 69 99 69c24 0 48 -7 72 -21c25 -13 44 -20 59 -20c25 0 48 12 67 36l40 -31c-25 -46 -58 -69 -99 -69c-24 0 -48 7 -73 20c-24 14 -43 21 -58 21c-25 0 -48 -12 -67 -36z" />
    <glyph glyph-name="hungarumlaut" unicode="&#x2dd;" horiz-adv-x="357" 
d="M74 560h-49l70 140h93zM226 560h-49l70 140h93z" />
    <glyph glyph-name="uni2206" unicode="&#x394;" horiz-adv-x="654" 
d="M596 0h-538v16l236 684h66l236 -684v-16zM514 58l-187 549l-187 -549h374z" />
    <glyph glyph-name="uni2206" unicode="&#x2206;" horiz-adv-x="654" 
d="M596 0h-538v16l236 684h66l236 -684v-16zM514 58l-187 549l-187 -549h374z" />
    <glyph glyph-name="uni2126" unicode="&#x3a9;" horiz-adv-x="682" 
d="M290 0h-210v56h138c-7 11 -14 22 -41 81c-13 30 -25 59 -36 88c-10 29 -19 64 -28 103c-9 40 -13 77 -13 112c0 79 22 144 65 193c44 50 103 75 176 75s132 -25 175 -75c44 -49 66 -114 66 -193c0 -105 -34 -223 -102 -354c-11 -20 -16 -30 -16 -30h138v-56h-210v19
c7 12 14 24 41 88c13 32 25 64 35 95c11 32 20 70 29 114s13 85 13 124c0 131 -68 212 -169 212s-169 -81 -169 -212c0 -118 34 -247 101 -388c11 -22 17 -33 17 -33v-19z" />
    <glyph glyph-name="uni2126" unicode="&#x2126;" horiz-adv-x="682" 
d="M290 0h-210v56h138c-7 11 -14 22 -41 81c-13 30 -25 59 -36 88c-10 29 -19 64 -28 103c-9 40 -13 77 -13 112c0 79 22 144 65 193c44 50 103 75 176 75s132 -25 175 -75c44 -49 66 -114 66 -193c0 -105 -34 -223 -102 -354c-11 -20 -16 -30 -16 -30h138v-56h-210v19
c7 12 14 24 41 88c13 32 25 64 35 95c11 32 20 70 29 114s13 85 13 124c0 131 -68 212 -169 212s-169 -81 -169 -212c0 -118 34 -247 101 -388c11 -22 17 -33 17 -33v-19z" />
    <glyph glyph-name="pi" unicode="&#x3c0;" horiz-adv-x="593" 
d="M145 448h-89v56h481v-56h-89v-448h-62v448h-179v-448h-62v448z" />
    <glyph glyph-name="uni2000" unicode="&#x2000;" horiz-adv-x="473" 
 />
    <glyph glyph-name="uni2001" unicode="&#x2001;" horiz-adv-x="947" 
 />
    <glyph glyph-name="uni2002" unicode="&#x2002;" horiz-adv-x="473" 
 />
    <glyph glyph-name="uni2003" unicode="&#x2003;" horiz-adv-x="947" 
 />
    <glyph glyph-name="uni2004" unicode="&#x2004;" horiz-adv-x="315" 
 />
    <glyph glyph-name="uni2005" unicode="&#x2005;" horiz-adv-x="236" 
 />
    <glyph glyph-name="uni2006" unicode="&#x2006;" horiz-adv-x="157" 
 />
    <glyph glyph-name="uni2007" unicode="&#x2007;" horiz-adv-x="157" 
 />
    <glyph glyph-name="uni2008" unicode="&#x2008;" horiz-adv-x="118" 
 />
    <glyph glyph-name="uni2009" unicode="&#x2009;" horiz-adv-x="189" 
 />
    <glyph glyph-name="uni200A" unicode="&#x200a;" horiz-adv-x="52" 
 />
    <glyph glyph-name="uni2010" unicode="&#x2010;" horiz-adv-x="471" 
d="M400 289h-329v56h329v-56z" />
    <glyph glyph-name="uni2011" unicode="&#x2011;" horiz-adv-x="471" 
d="M400 289h-329v56h329v-56z" />
    <glyph glyph-name="endash" unicode="&#x2013;" horiz-adv-x="557" 
d="M481 289h-409v56h409v-56z" />
    <glyph glyph-name="emdash" unicode="&#x2014;" horiz-adv-x="762" 
d="M686 289h-614v56h614v-56z" />
    <glyph glyph-name="quoteleft" unicode="&#x2018;" horiz-adv-x="275" 
d="M60 708h103l61 -184h-49z" />
    <glyph glyph-name="quoteright" unicode="&#x2019;" horiz-adv-x="275" 
d="M100 524h-49l61 184h103z" />
    <glyph glyph-name="quotesinglbase" unicode="&#x201a;" horiz-adv-x="275" 
d="M100 -14h-49l61 184h103z" />
    <glyph glyph-name="quotedblleft" unicode="&#x201c;" horiz-adv-x="418" 
d="M203 708h103l61 -184h-49zM60 708h103l61 -184h-49z" />
    <glyph glyph-name="quotedblright" unicode="&#x201d;" horiz-adv-x="418" 
d="M100 524h-49l61 184h103zM243 524h-49l61 184h103z" />
    <glyph glyph-name="quotedblbase" unicode="&#x201e;" horiz-adv-x="418" 
d="M100 -14h-49l61 184h103zM243 -14h-49l61 184h103z" />
    <glyph glyph-name="dagger" unicode="&#x2020;" horiz-adv-x="460" 
d="M200 448h-135v56h135v246h60v-246h135v-56h-135v-498h-60v498z" />
    <glyph glyph-name="daggerdbl" unicode="&#x2021;" horiz-adv-x="460" 
d="M200 448h-135v56h135v246h60v-246h135v-56h-135v-196h135v-56h-135v-246h-60v246h-135v56h135v196z" />
    <glyph glyph-name="bullet" unicode="&#x2022;" horiz-adv-x="304" 
d="M106 284c-25 25 -25 67 0 92s67 25 92 0s25 -67 0 -92s-67 -25 -92 0z" />
    <glyph glyph-name="ellipsis" unicode="&#x2026;" horiz-adv-x="778" 
d="M91 49c0 29 22 51 51 51s51 -22 51 -51s-22 -51 -51 -51s-51 20 -51 51zM338 49c0 44 56 69 87 36c33 -31 8 -87 -36 -87c-31 0 -51 20 -51 51zM585 49c0 29 22 51 51 51s51 -22 51 -51s-22 -51 -51 -51s-51 20 -51 51z" />
    <glyph glyph-name="uni202F" unicode="&#x202f;" horiz-adv-x="189" 
 />
    <glyph glyph-name="perthousand" unicode="&#x2030;" horiz-adv-x="1244" 
d="M106 434c-29 31 -44 69 -44 114s15 82 44 113c30 31 68 47 113 47s83 -16 112 -47c30 -31 45 -68 45 -113s-15 -83 -45 -114c-29 -31 -67 -46 -112 -46s-83 15 -113 46zM144 624c-19 -20 -28 -45 -28 -76s9 -56 28 -76s44 -30 75 -30s56 10 75 30s28 45 28 76
s-9 56 -28 76s-44 30 -75 30s-56 -10 -75 -30zM512 38c-29 31 -44 69 -44 114s15 82 44 113c30 31 68 47 113 47s83 -16 112 -47c30 -31 45 -68 45 -113s-15 -83 -45 -114c-29 -31 -67 -46 -112 -46s-83 15 -113 46zM550 228c-19 -20 -28 -45 -28 -76s9 -56 28 -76
s44 -30 75 -30s56 10 75 30s28 45 28 76s-9 56 -28 76s-44 30 -75 30s-56 -10 -75 -30zM130 9l542 715l42 -33l-542 -715zM912 38c-29 31 -44 69 -44 114s15 82 44 113c30 31 68 47 113 47s83 -16 112 -47c30 -31 45 -68 45 -113s-15 -83 -45 -114c-29 -31 -67 -46 -112 -46
s-83 15 -113 46zM950 228c-19 -20 -28 -45 -28 -76s9 -56 28 -76s44 -30 75 -30s56 10 75 30s28 45 28 76s-9 56 -28 76s-44 30 -75 30s-56 -10 -75 -30z" />
    <glyph glyph-name="guilsinglleft" unicode="&#x2039;" horiz-adv-x="373" 
d="M313 94l-263 195v42l263 195v-68l-198 -148l198 -148v-68z" />
    <glyph glyph-name="guilsinglright" unicode="&#x203a;" horiz-adv-x="373" 
d="M60 526l263 -195v-42l-263 -195v68l198 148l-198 148v68z" />
    <glyph glyph-name="fraction" unicode="&#x2044;" horiz-adv-x="608" 
d="M12 9l542 715l42 -33l-542 -715z" />
    <glyph glyph-name="uni205F" unicode="&#x205f;" horiz-adv-x="236" 
 />
    <glyph glyph-name="uni2070" unicode="&#x2070;" horiz-adv-x="385" 
d="M86 648c25 37 61 56 107 56s81 -19 106 -56s38 -86 38 -148s-13 -112 -38 -149s-60 -55 -106 -55s-82 18 -107 55s-38 87 -38 149s13 111 38 148zM259 616c-16 27 -38 40 -66 40s-50 -13 -67 -40c-16 -27 -24 -65 -24 -116s8 -89 24 -116c17 -27 39 -40 67 -40
s50 13 66 40c17 27 25 65 25 116s-8 89 -25 116z" />
    <glyph glyph-name="uni2074" unicode="&#x2074;" horiz-adv-x="338" 
d="M256 300h-50v83h-171v17l162 300h59v-269h52v-48h-52v-83zM206 626l-102 -195h102v195z" />
    <glyph glyph-name="uni2075" unicode="&#x2075;" horiz-adv-x="333" 
d="M50 406l49 9c10 -47 35 -71 74 -71c49 0 76 32 76 87c0 59 -25 88 -76 88c-31 0 -57 -15 -78 -45l-36 8l21 218h199v-48h-156l-13 -115c17 19 41 28 71 28c76 0 122 -50 122 -134c0 -83 -51 -135 -130 -135c-65 0 -114 39 -123 110z" />
    <glyph glyph-name="uni2076" unicode="&#x2076;" horiz-adv-x="365" 
d="M191 559c75 0 124 -52 124 -131c0 -76 -51 -132 -130 -132s-131 56 -131 132c0 28 8 56 24 85l109 191h54l-91 -155c7 7 21 10 41 10zM108 428c0 -49 30 -84 77 -84s76 35 76 84c0 52 -28 83 -76 83s-77 -32 -77 -83z" />
    <glyph glyph-name="uni2077" unicode="&#x2077;" horiz-adv-x="294" 
d="M274 678l-155 -378h-54l145 352h-164v48h228v-22z" />
    <glyph glyph-name="uni2078" unicode="&#x2078;" horiz-adv-x="354" 
d="M287 598c0 -38 -16 -66 -47 -83c36 -13 62 -49 62 -97c0 -75 -53 -122 -125 -122s-125 47 -125 122c0 48 26 84 62 97c-31 17 -47 45 -47 83c0 63 45 106 110 106s110 -43 110 -106zM106 418c0 -44 27 -74 71 -74s71 30 71 74c0 45 -27 71 -71 71s-71 -26 -71 -71z
M115 598c0 -36 25 -61 62 -61s62 25 62 61c0 37 -25 62 -62 62s-62 -25 -62 -62z" />
    <glyph glyph-name="uni2079" unicode="&#x2079;" horiz-adv-x="365" 
d="M174 441c-75 0 -124 52 -124 131c0 76 51 132 130 132s131 -56 131 -132c0 -28 -8 -56 -24 -85l-109 -191h-54l91 155c-7 -7 -21 -10 -41 -10zM257 572c0 49 -30 84 -77 84s-76 -35 -76 -84c0 -52 28 -83 76 -83s77 32 77 83z" />
    <glyph glyph-name="Euro" unicode="&#x20ac;" horiz-adv-x="612" 
d="M114 395h-79l29 56h54c21 156 115 257 259 257c83 0 147 -39 191 -116l-55 -30c-28 60 -73 90 -136 90c-104 0 -174 -72 -194 -201h258l-29 -56h-234v-90h263l-29 -56h-229c20 -129 90 -201 194 -201c63 0 108 30 136 90l55 -30c-44 -77 -108 -116 -191 -116
c-144 0 -238 101 -259 257h-83l29 56h50v90z" />
    <glyph glyph-name="trademark" unicode="&#x2122;" horiz-adv-x="811" 
d="M144 656h-114v44h277v-44h-114v-356h-49v356zM383 300v400h52l118 -282l118 282h52v-400h-49v295l-107 -258h-28l-107 258v-295h-49z" />
    <glyph glyph-name="partialdiff" unicode="&#x2202;" horiz-adv-x="592" 
d="M172 560l-65 17c36 80 105 131 200 131c143 0 221 -125 221 -353c0 -66 -10 -126 -30 -180c-39 -107 -127 -183 -250 -183c-59 0 -106 20 -143 59s-55 91 -55 155c0 84 25 156 75 216c51 60 117 90 199 90c55 0 114 -24 138 -57c-12 119 -73 195 -162 195
c-55 0 -97 -30 -128 -90zM315 454c-61 0 -109 -25 -145 -74s-54 -107 -54 -172c0 -93 53 -158 132 -158c61 0 112 24 151 73c40 49 60 106 60 172c0 100 -53 159 -144 159z" />
    <glyph glyph-name="product" unicode="&#x220f;" horiz-adv-x="541" 
d="M156 0h-62v700h353v-700h-62v644h-229v-644z" />
    <glyph glyph-name="summation" unicode="&#x2211;" horiz-adv-x="542" 
d="M60 15l215 335l-215 335v15h416v-56h-322l183 -286v-16l-183 -286h322v-56h-416v15z" />
    <glyph glyph-name="minus" unicode="&#x2212;" horiz-adv-x="544" 
d="M479 289h-410v56h410v-56z" />
    <glyph glyph-name="radical" unicode="&#x221a;" horiz-adv-x="552" 
d="M286 108l182 600h56l-215 -708h-47l-108 333h-94v56h133z" />
    <glyph glyph-name="infinity" unicode="&#x221e;" horiz-adv-x="876" 
d="M636 168c-73 0 -139 44 -198 133c-59 -89 -125 -133 -198 -133c-54 0 -98 18 -131 53s-49 81 -49 138s16 103 49 138s77 53 131 53c73 0 139 -44 198 -133c59 89 125 133 198 133c54 0 97 -18 130 -53s50 -81 50 -138s-17 -103 -50 -138s-76 -53 -130 -53zM253 224
c61 0 113 45 158 135c-45 90 -97 135 -158 135c-80 0 -131 -51 -131 -135s51 -135 131 -135zM623 224c80 0 131 51 131 135s-51 135 -131 135c-61 0 -113 -45 -158 -135c45 -90 97 -135 158 -135z" />
    <glyph glyph-name="integral" unicode="&#x222b;" horiz-adv-x="468" 
d="M109 -50l114 586c24 124 83 172 186 172c26 0 46 -4 61 -13l-24 -57c-15 8 -31 12 -50 12c-59 0 -95 -35 -109 -104l-114 -586c-24 -125 -81 -172 -182 -172c-29 0 -50 4 -65 13l24 57c16 -8 33 -12 50 -12c63 0 94 32 109 104z" />
    <glyph glyph-name="approxequal" unicode="&#x2248;" horiz-adv-x="572" 
d="M110 181l-40 39c37 52 78 78 122 78c26 0 56 -9 91 -27s64 -27 89 -27c35 0 65 15 90 45l40 -39c-37 -52 -78 -78 -122 -78c-26 0 -56 9 -91 27s-64 27 -89 27c-35 0 -65 -15 -90 -45zM110 381l-40 39c37 52 78 78 122 78c26 0 56 -9 91 -27s64 -27 89 -27
c35 0 65 15 90 45l40 -39c-37 -52 -78 -78 -122 -78c-26 0 -56 9 -91 27s-64 27 -89 27c-35 0 -65 -15 -90 -45z" />
    <glyph glyph-name="notequal" unicode="&#x2260;" horiz-adv-x="555" 
d="M277 365h-193v56h225l64 111l48 -28l-48 -83h98v-56h-130l-63 -110h193v-56h-225l-64 -111l-48 28l48 83h-98v56h130z" />
    <glyph glyph-name="lessequal" unicode="&#x2264;" horiz-adv-x="530" 
d="M465 0h-409v56h409v-56zM427 188l-334 180v68l334 180v-62l-283 -152l283 -152v-62z" />
    <glyph glyph-name="greaterequal" unicode="&#x2265;" horiz-adv-x="530" 
d="M65 56h409v-56h-409v56zM103 616l334 -180v-68l-334 -180v62l283 152l-283 152v62z" />
    <glyph glyph-name="lozenge" unicode="&#x25ca;" horiz-adv-x="560" 
d="M311 0h-62l-180 350l180 350h62l180 -350zM133 350l147 -286l147 286l-147 286z" />
    <glyph glyph-name="CR.001" horiz-adv-x="252" 
 />
    <glyph glyph-name="apple" horiz-adv-x="794" 
d="M693 617v-595c0 -12 -10 -22 -22 -22c-2 0 -4 0 -7 1l-267 77l-267 -77c-3 -1 -5 -1 -7 -1c-12 0 -22 10 -22 22v595c0 11 5 19 16 22l270 78c8 3 12 3 20 0l270 -78c11 -3 16 -11 16 -22zM375 366v303l-230 -67c4 -63 28 -116 71 -161c44 -45 97 -70 159 -75zM649 602
l-230 67v-303c62 5 115 30 158 75c44 45 68 98 72 161zM144 463v-412l231 67v204c-97 8 -183 61 -231 141zM419 118l231 -67v412c-49 -80 -134 -133 -231 -141v-204z" />
    <glyph glyph-name="No" horiz-adv-x="1214" 
d="M526 105v595h66v-700h-78l-347 593v-593h-66v700h78zM1127 0h-409v56h409v-56zM751 266c-43 52 -65 113 -65 182s22 130 65 182s100 78 171 78s128 -26 171 -78s65 -113 65 -182s-22 -130 -65 -182s-100 -78 -171 -78s-128 26 -171 78zM796 590c-30 -40 -45 -87 -45 -142
s15 -102 45 -142c31 -40 73 -60 126 -60s95 20 125 60c31 40 46 87 46 142s-15 102 -46 142c-30 40 -72 60 -125 60s-95 -20 -126 -60z" />
    <glyph glyph-name="zero.tn" 
d="M103 611c41 65 101 97 180 97s138 -32 179 -97c41 -64 62 -151 62 -261s-21 -197 -62 -262c-41 -64 -100 -96 -179 -96s-139 32 -180 96c-41 65 -61 152 -61 262s20 197 61 261zM413 569c-31 55 -75 83 -130 83s-99 -28 -130 -83s-47 -128 -47 -219s16 -164 47 -219
s75 -83 130 -83s99 28 130 83s47 128 47 219s-16 164 -47 219z" />
    <glyph glyph-name="one.tn" 
d="M164 597l162 103h16v-700h-62v594l-116 -73v76z" />
    <glyph glyph-name="two.tn" 
d="M491 0h-414v23l255 330c32 41 53 72 63 94s15 48 15 77c0 79 -47 128 -124 128c-72 0 -124 -58 -136 -141l-58 11c5 55 26 99 61 134s80 52 133 52c111 0 188 -69 188 -186c0 -53 -28 -116 -85 -189l-214 -277h316v-56z" />
    <glyph glyph-name="three.tn" 
d="M68 192l62 9c11 -93 64 -153 153 -153c101 0 157 63 157 166c0 108 -57 167 -157 167c-22 0 -43 -6 -62 -18l-30 39l181 242h-269v56h366v-17l-189 -251c6 2 15 3 26 3c54 0 100 -20 139 -60c39 -39 59 -93 59 -161c0 -67 -20 -120 -60 -161c-39 -41 -93 -61 -161 -61
c-116 0 -202 75 -215 200z" />
    <glyph glyph-name="four.tn" 
d="M418 0h-62v161h-309v17l295 522h76v-483h93v-56h-93v-161zM356 612l-221 -395h221v395z" />
    <glyph glyph-name="five.tn" 
d="M79 184l61 11c13 -98 61 -147 144 -147c100 0 152 68 152 180c0 119 -56 180 -152 180c-59 0 -107 -31 -144 -94l-44 10l36 376h327v-56h-271l-25 -238c36 39 78 58 127 58c129 0 210 -91 210 -236c0 -70 -19 -127 -58 -171c-39 -43 -91 -65 -158 -65
c-111 0 -189 65 -205 192z" />
    <glyph glyph-name="six.tn" 
d="M283 448c64 0 116 -22 157 -66c41 -43 61 -97 61 -162s-20 -119 -61 -163c-41 -43 -93 -65 -157 -65s-116 22 -157 65c-41 44 -61 98 -61 163c0 42 12 85 37 129l207 359h65l-156 -277c15 11 36 17 65 17zM129 220c0 -50 14 -91 43 -124c29 -32 66 -48 111 -48
s81 16 110 48c29 33 44 74 44 124c0 105 -63 172 -154 172s-154 -67 -154 -172z" />
    <glyph glyph-name="seven.tn" 
d="M481 680l-277 -680h-65l268 644h-314v56h388v-20z" />
    <glyph glyph-name="eight.tn" 
d="M469 526c0 -69 -37 -122 -88 -149c64 -24 112 -96 112 -181c0 -64 -20 -114 -61 -150c-40 -36 -90 -54 -149 -54s-109 18 -150 54c-40 36 -60 86 -60 150c0 85 48 157 112 181c-51 27 -88 80 -88 149c0 54 17 98 51 131c35 34 80 51 135 51s100 -17 134 -51
c35 -33 52 -77 52 -131zM283 48c89 0 146 56 146 148s-58 148 -146 148s-146 -56 -146 -148s58 -148 146 -148zM373 617c-23 23 -53 35 -90 35s-67 -12 -90 -35s-34 -53 -34 -91s11 -69 34 -92s53 -34 90 -34s67 11 90 34s34 54 34 92s-11 68 -34 91z" />
    <glyph glyph-name="nine.tn" 
d="M283 252c-64 0 -116 22 -157 65c-41 44 -61 98 -61 163s20 119 61 162c41 44 93 66 157 66s116 -22 157 -66c41 -43 61 -97 61 -162c0 -42 -12 -85 -37 -129l-207 -359h-65l156 277c-15 -11 -36 -17 -65 -17zM437 480c0 50 -15 91 -44 123c-29 33 -65 49 -110 49
s-82 -16 -111 -49c-29 -32 -43 -73 -43 -123c0 -105 63 -172 154 -172s154 67 154 172z" />
    <glyph glyph-name="edition" horiz-adv-x="2491" 
d="M526 105v595h66v-700h-78l-347 593v-593h-66v700h78zM1127 0h-409v56h409v-56zM751 266c-43 52 -65 113 -65 182s22 130 65 182s100 78 171 78s128 -26 171 -78s65 -113 65 -182s-22 -130 -65 -182s-100 -78 -171 -78s-128 26 -171 78zM796 590c-30 -40 -45 -87 -45 -142
s15 -102 45 -142c31 -40 73 -60 126 -60s95 20 125 60c31 40 46 87 46 142s-15 102 -46 142c-30 40 -72 60 -125 60s-95 -20 -126 -60zM1346 648c25 37 61 56 107 56s81 -19 106 -56s38 -86 38 -148s-13 -112 -38 -149s-60 -55 -106 -55s-82 18 -107 55s-38 87 -38 149
s13 111 38 148zM1519 616c-16 27 -38 40 -66 40s-50 -13 -67 -40c-16 -27 -24 -65 -24 -116s8 -89 24 -116c17 -27 39 -40 67 -40s50 13 66 40c17 27 25 65 25 116s-8 89 -25 116zM1746 648c25 37 61 56 107 56s81 -19 106 -56s38 -86 38 -148s-13 -112 -38 -149
s-60 -55 -106 -55s-82 18 -107 55s-38 87 -38 149s13 111 38 148zM1919 616c-16 27 -38 40 -66 40s-50 -13 -67 -40c-16 -27 -24 -65 -24 -116s8 -89 24 -116c17 -27 39 -40 67 -40s50 13 66 40c17 27 25 65 25 116s-8 89 -25 116zM2146 648c25 37 61 56 107 56
s81 -19 106 -56s38 -86 38 -148s-13 -112 -38 -149s-60 -55 -106 -55s-82 18 -107 55s-38 87 -38 149s13 111 38 148zM2319 616c-16 27 -38 40 -66 40s-50 -13 -67 -40c-16 -27 -24 -65 -24 -116s8 -89 24 -116c17 -27 39 -40 67 -40s50 13 66 40c17 27 25 65 25 116
s-8 89 -25 116z" />
    </font>
</defs>
</svg>
