<?xml version="1.0" standalone="no"?>
<!DOCTYPE svg PUBLIC "-//W3C//DTD SVG 1.1//EN" "http://www.w3.org/Graphics/SVG/1.1/DTD/svg11.dtd" >
<svg xmlns="http://www.w3.org/2000/svg" xmlns:xlink="http://www.w3.org/1999/xlink" version="1.1">
<metadata>
Created by FontForge 20170910 at Fri Aug 27 16:31:39 2010
 By Jimmy Wärting
Copyright (c) 2009 by The Entente (AS &#38; EH). All rights reserved.
</metadata>
<defs>
<font id="Apercu-LightItalic" horiz-adv-x="566" >
  <font-face 
    font-family="Apercu"
    font-weight="300"
    font-style="italic"
    font-stretch="normal"
    units-per-em="1000"
    panose-1="2 0 5 6 4 0 0 9 0 4"
    ascent="800"
    descent="-200"
    x-height="504"
    cap-height="700"
    bbox="-82 -229 1185 947"
    underline-thickness="50"
    underline-position="-100"
    slope="-12"
    unicode-range="U+0020-FB02"
  />
<missing-glyph horiz-adv-x="619" 
d="M518 0h-417v700h417v-700zM454 58v584h-289v-584h289z" />
    <glyph glyph-name="uniFB01" unicode="fi" horiz-adv-x="515" 
d="M122 446h-80l12 58h80l5 25c24 117 108 179 225 179c44 0 81 -11 111 -32l-24 -54c-29 19 -62 28 -97 28c-81 0 -137 -45 -152 -120l-5 -26h265l-98 -504h-63l86 446h-202l-86 -446h-63z" />
    <glyph glyph-name="uniFB02" unicode="fl" horiz-adv-x="580" 
d="M122 446h-78l12 58h78l8 40c22 109 84 164 185 164h213l-137 -708h-63l126 650h-152c-59 0 -95 -35 -109 -104l-8 -42h122l-12 -58h-122l-86 -446h-63z" />
    <glyph glyph-name=".notdef" horiz-adv-x="619" 
d="M518 0h-417v700h417v-700zM454 58v584h-289v-584h289z" />
    <glyph glyph-name="NULL" horiz-adv-x="0" 
 />
    <glyph glyph-name="CR.001" horiz-adv-x="333" 
 />
    <glyph glyph-name="space" unicode=" " horiz-adv-x="222" 
 />
    <glyph glyph-name="exclam" unicode="!" horiz-adv-x="331" 
d="M126 184l78 516h86l-124 -516h-40zM80 13c-20 21 -20 59 0 79c21 21 59 21 79 0c21 -20 21 -58 0 -79c-20 -20 -58 -20 -79 0z" />
    <glyph glyph-name="quotedbl" unicode="&#x22;" horiz-adv-x="431" 
d="M185 480h-47l24 228h89zM332 480h-47l24 228h89z" />
    <glyph glyph-name="numbersign" unicode="#" horiz-adv-x="684" 
d="M233 432h-122l7 54h134l69 214h56l-69 -214h159l70 214h56l-70 -214h115l-7 -54h-126l-52 -164h119l-7 -54h-131l-69 -214h-56l69 214h-159l-70 -214h-56l70 214h-118l7 54h129zM449 432h-160l-52 -164h160z" />
    <glyph glyph-name="dollar" unicode="$" horiz-adv-x="521" 
d="M477 594l-61 -34c-18 57 -52 86 -101 86c-71 0 -116 -48 -116 -123c0 -29 10 -54 34 -75c24 -20 38 -30 74 -50c87 -49 135 -97 135 -173c0 -70 -18 -124 -54 -163c-37 -40 -87 -63 -148 -68l-16 -84h-60l16 84c-45 5 -83 25 -113 60c-29 35 -44 78 -44 127l60 30
c0 -43 12 -80 35 -111c24 -31 57 -46 98 -46c96 0 157 55 157 151c0 25 -6 47 -18 66c-23 39 -44 50 -95 78c-77 43 -128 90 -128 170c0 55 17 99 51 134c35 35 80 53 136 55l16 82h60l-17 -90c49 -17 82 -52 99 -106z" />
    <glyph glyph-name="percent" unicode="%" horiz-adv-x="893" 
d="M70 526c0 49 15 92 46 127c33 37 78 55 136 55c73 0 132 -53 132 -138c0 -49 -15 -92 -46 -127c-33 -37 -78 -55 -136 -55c-73 0 -132 53 -132 138zM244 654c-67 0 -118 -49 -118 -120c0 -59 35 -92 84 -92c67 0 118 49 118 120c0 59 -35 92 -84 92zM450 130
c0 49 15 92 46 127c33 37 78 55 136 55c73 0 132 -53 132 -138c0 -49 -15 -92 -46 -127c-33 -37 -78 -55 -136 -55c-73 0 -132 53 -132 138zM624 258c-67 0 -118 -49 -118 -120c0 -59 35 -92 84 -92c67 0 118 49 118 120c0 59 -35 92 -84 92zM76 11l680 715l36 -37
l-680 -715z" />
    <glyph glyph-name="ampersand" unicode="&#x26;" horiz-adv-x="619" 
d="M211 -8c-48 0 -89 16 -123 49s-51 76 -51 129c0 100 61 180 183 241c-25 48 -37 88 -37 120c0 108 63 177 179 177c80 0 130 -46 130 -126c0 -87 -64 -138 -184 -195l120 -204c25 36 50 79 77 128l36 -52c-32 -57 -59 -100 -81 -130l76 -129h-72l-47 79
c-57 -58 -125 -87 -206 -87zM227 50c58 0 111 27 159 81l-136 230c-100 -47 -150 -107 -150 -179c0 -77 47 -132 127 -132zM354 654c-61 0 -108 -46 -108 -111c0 -35 11 -71 34 -109c24 11 42 20 55 27s28 17 45 29c35 24 49 51 49 84c0 53 -25 80 -75 80z" />
    <glyph glyph-name="quotesingle" unicode="'" horiz-adv-x="284" 
d="M185 480h-47l24 228h89z" />
    <glyph glyph-name="parenleft" unicode="(" horiz-adv-x="282" 
d="M257 750h67c-133 -167 -200 -350 -200 -550c0 -96 15 -179 45 -250h-67c-30 70 -45 154 -45 252c0 109 18 210 54 305s85 176 146 243z" />
    <glyph glyph-name="parenright" unicode=")" horiz-adv-x="282" 
d="M24 -50h-67c134 167 201 351 201 550c0 95 -15 178 -46 250h67c31 -71 46 -155 46 -252c0 -109 -18 -210 -54 -305s-85 -176 -147 -243z" />
    <glyph glyph-name="asterisk" unicode="*" horiz-adv-x="494" 
d="M276 708h56l-29 -146l148 46l10 -54l-150 -47l63 -116l-53 -34l-63 117l-109 -117l-39 34l109 116l-130 47l25 55l133 -47z" />
    <glyph glyph-name="plus" unicode="+" horiz-adv-x="561" 
d="M301 344h177l-11 -56h-177l-34 -177h-57l34 177h-177l11 56h177l34 176h57z" />
    <glyph glyph-name="comma" unicode="," horiz-adv-x="298" 
d="M48 -77h-46l81 165h94z" />
    <glyph glyph-name="hyphen" unicode="-" horiz-adv-x="479" 
d="M390 289h-329l11 56h329z" />
    <glyph glyph-name="period" unicode="." horiz-adv-x="262" 
d="M29 49c0 29 22 51 51 51s51 -22 51 -51s-22 -51 -51 -51s-51 20 -51 51z" />
    <glyph glyph-name="slash" unicode="/" horiz-adv-x="501" 
d="M-82 -50l591 800h73l-591 -800h-73z" />
    <glyph glyph-name="zero" unicode="0" horiz-adv-x="585" 
d="M358 708c121 0 185 -89 185 -240c0 -108 -23 -216 -70 -313s-135 -163 -246 -163c-123 0 -185 89 -185 240c0 108 23 216 70 313s135 163 246 163zM347 652c-83 0 -150 -63 -186 -150c-36 -85 -54 -178 -54 -255c0 -128 44 -199 131 -199c83 0 150 64 186 149
c36 87 54 179 54 256c0 128 -44 199 -131 199z" />
    <glyph glyph-name="one" unicode="1" horiz-adv-x="355" 
d="M93 597l182 103h17l-137 -700h-63l116 594l-130 -73z" />
    <glyph glyph-name="two" unicode="2" horiz-adv-x="536" 
d="M398 0h-403l4 23l312 333c29 31 50 54 62 69c25 31 49 75 49 120c0 68 -34 107 -99 107c-72 0 -127 -55 -150 -142l-57 12c27 117 103 186 218 186c91 0 153 -60 153 -148c0 -43 -9 -82 -28 -116c-19 -33 -50 -73 -94 -119l-255 -269h299z" />
    <glyph glyph-name="three" unicode="3" horiz-adv-x="536" 
d="M16 192l60 8c8 -101 52 -152 132 -152c111 0 164 73 164 190c0 88 -47 143 -120 143c-29 0 -54 -6 -75 -18l-26 38l219 243h-257l11 56h361l-3 -17l-232 -251c7 2 15 3 26 3c89 0 159 -62 159 -186c0 -165 -79 -257 -227 -257c-119 0 -189 77 -192 200z" />
    <glyph glyph-name="four" unicode="4" horiz-adv-x="534" 
d="M334 0h-63l32 161h-302l3 17l390 522h77l-94 -483h90l-11 -56h-90zM390 612l-290 -395h214z" />
    <glyph glyph-name="five" unicode="5" horiz-adv-x="545" 
d="M29 184l65 9c0 -85 44 -145 120 -145c58 0 103 23 135 68c33 45 49 99 49 161c0 87 -41 131 -124 131c-27 0 -57 -10 -88 -29s-56 -40 -75 -65l-43 10l108 376h325l-11 -56h-267l-70 -236c36 37 82 56 137 56c109 0 171 -64 171 -185c0 -87 -22 -156 -66 -209
c-43 -52 -106 -78 -188 -78c-50 0 -92 17 -127 50c-34 34 -51 81 -51 142z" />
    <glyph glyph-name="six" unicode="6" horiz-adv-x="554" 
d="M298 448c107 0 170 -67 170 -188c0 -77 -24 -141 -71 -192s-108 -76 -184 -76c-107 0 -172 75 -172 182c0 72 23 137 69 196l266 338h69l-212 -277c17 11 38 17 65 17zM287 392c-52 0 -96 -21 -131 -64s-52 -92 -52 -149c0 -80 44 -131 120 -131c54 0 98 20 131 61
s50 89 50 145c0 92 -43 138 -118 138z" />
    <glyph glyph-name="seven" unicode="7" horiz-adv-x="479" 
d="M501 680l-396 -680h-73l377 644h-303l11 56h388z" />
    <glyph glyph-name="eight" unicode="8" horiz-adv-x="541" 
d="M340 708c96 0 155 -62 155 -157c0 -87 -47 -155 -119 -182c44 -20 76 -69 76 -145c0 -74 -21 -130 -64 -169c-55 -49 -101 -63 -181 -63c-50 0 -92 17 -126 50c-33 33 -50 76 -50 129c0 104 48 173 145 208c-42 31 -63 73 -63 126c0 64 26 117 77 158c37 30 87 45 150 45
zM269 344c-49 0 -91 -16 -125 -47c-33 -31 -50 -71 -50 -122c0 -75 52 -127 124 -127c107 0 174 68 174 168c0 81 -47 128 -123 128zM330 654c-43 0 -80 -14 -110 -41c-29 -27 -44 -63 -44 -106c0 -64 37 -107 104 -107c43 0 79 14 108 41s44 63 44 106
c0 68 -37 107 -102 107z" />
    <glyph glyph-name="nine" unicode="9" horiz-adv-x="554" 
d="M257 252c-107 0 -170 67 -170 188c0 77 23 140 70 191s109 77 185 77c107 0 172 -75 172 -182c0 -72 -23 -137 -69 -196l-266 -338h-69l212 277c-17 -11 -38 -17 -65 -17zM268 308c52 0 95 21 130 64s53 92 53 149c0 80 -44 131 -120 131c-54 0 -98 -20 -131 -61
s-50 -89 -50 -145c0 -92 43 -138 118 -138z" />
    <glyph glyph-name="colon" unicode=":" horiz-adv-x="289" 
d="M44 49c0 44 56 69 87 36c33 -31 8 -87 -36 -87c-31 0 -51 20 -51 51zM114 415c0 44 56 69 87 36c33 -31 8 -87 -36 -87c-31 0 -51 20 -51 51z" />
    <glyph glyph-name="semicolon" unicode=";" horiz-adv-x="289" 
d="M26 -77h-46l81 165h94zM114 415c0 44 56 69 87 36c33 -31 8 -87 -36 -87c-31 0 -51 20 -51 51z" />
    <glyph glyph-name="less" unicode="&#x3c;" horiz-adv-x="458" 
d="M381 96l-335 180v68l335 180v-62l-283 -152l283 -152v-62z" />
    <glyph glyph-name="equal" unicode="=" horiz-adv-x="586" 
d="M477 365h-387v56h387v-56zM477 199h-387v56h387v-56z" />
    <glyph glyph-name="greater" unicode="&#x3e;" horiz-adv-x="458" 
d="M77 524l335 -180v-68l-335 -180v62l283 152l-283 152v62z" />
    <glyph glyph-name="question" unicode="?" horiz-adv-x="440" 
d="M282 327l48 -22c-31 -81 -73 -108 -141 -108c-61 0 -109 47 -109 110c0 75 37 111 110 144l96 42c49 21 70 43 70 83c0 52 -27 78 -81 78c-55 0 -94 -36 -117 -107l-58 18c30 95 91 143 182 143c89 0 137 -51 137 -130c0 -57 -34 -100 -101 -131l-102 -46
c-51 -23 -77 -46 -77 -90c0 -36 25 -60 58 -60c39 0 61 23 85 76zM109 13c-20 21 -20 59 0 79c21 21 59 21 79 0c21 -20 21 -58 0 -79c-20 -20 -58 -20 -79 0z" />
    <glyph glyph-name="at" unicode="@" horiz-adv-x="861" 
d="M584 453l23 56h52l-60 -281c-1 -5 -1 -10 -1 -16c0 -32 16 -48 47 -48c89 0 129 91 129 223c0 183 -93 275 -269 275c-109 0 -198 -37 -268 -110s-105 -167 -105 -283c0 -91 29 -165 86 -222c58 -57 130 -85 215 -85c44 0 85 5 123 15c39 10 82 28 131 54l17 -52
c-53 -29 -99 -49 -138 -58c-39 -10 -85 -15 -140 -15c-103 0 -188 33 -257 99c-68 66 -102 152 -102 257c0 141 41 252 123 333c83 82 192 123 327 123c201 0 322 -112 322 -324c0 -144 -51 -286 -200 -286c-56 0 -90 34 -97 75c-39 -50 -89 -75 -151 -75
c-92 0 -148 69 -148 170c0 67 21 124 64 169c43 46 99 69 169 69c51 0 95 -24 108 -63zM466 460c-47 0 -85 -18 -114 -53s-44 -77 -44 -125c0 -79 32 -118 97 -118c45 0 82 18 111 55s44 79 44 124c0 73 -33 117 -94 117z" />
    <glyph glyph-name="A" unicode="A" horiz-adv-x="574" 
d="M-54 0l379 700h63l116 -700h-68l-31 199h-283l-109 -199h-67zM396 261l-55 349l-186 -349h241z" />
    <glyph glyph-name="B" unicode="B" horiz-adv-x="610" 
d="M42 0l137 700h217c104 0 168 -61 168 -152c0 -81 -40 -139 -120 -172c62 -25 93 -73 93 -144c0 -148 -102 -232 -259 -232h-236zM332 342h-156l-54 -280h156c119 0 190 56 190 164c0 73 -48 116 -136 116zM386 638h-153l-45 -234h153c93 0 153 48 153 135
c0 66 -36 99 -108 99z" />
    <glyph glyph-name="C" unicode="C" horiz-adv-x="659" 
d="M522 211l62 -19c-65 -133 -164 -200 -298 -200c-70 0 -128 25 -174 75c-45 50 -68 118 -68 204c0 75 15 146 44 211s74 119 133 162s127 64 204 64c63 0 114 -19 153 -57s61 -86 67 -143l-62 -17c-15 103 -71 155 -170 155c-59 0 -112 -18 -159 -54
c-93 -71 -140 -188 -140 -313c0 -140 68 -225 184 -225c102 0 177 52 224 157z" />
    <glyph glyph-name="D" unicode="D" horiz-adv-x="665" 
d="M42 0l136 700h175c81 0 146 -25 193 -74s71 -115 71 -200c0 -77 -15 -147 -46 -211c-31 -63 -77 -115 -138 -155s-132 -60 -212 -60h-179zM346 638h-114l-111 -576h102c97 0 176 34 235 103c60 69 90 154 90 254c0 145 -74 219 -202 219z" />
    <glyph glyph-name="E" unicode="E" horiz-adv-x="561" 
d="M42 0l136 700h390l-13 -62h-323l-45 -234h263l-12 -62h-263l-54 -280h333l-13 -62h-399z" />
    <glyph glyph-name="F" unicode="F" horiz-adv-x="546" 
d="M42 0l136 700h393l-13 -62h-326l-47 -242h266l-12 -62h-266l-65 -334h-66z" />
    <glyph glyph-name="G" unicode="G" horiz-adv-x="699" 
d="M558 0h-55l8 100c-49 -72 -125 -108 -226 -108c-68 0 -125 25 -172 75c-46 50 -69 119 -69 207c0 75 14 144 43 209s73 119 132 161c59 43 128 64 205 64c65 0 117 -19 156 -57s62 -88 67 -149l-61 -15c-17 109 -73 159 -174 159c-60 0 -113 -18 -160 -55
c-92 -72 -139 -188 -139 -311c0 -139 71 -226 184 -226c129 0 223 88 252 237h-160l12 62h226z" />
    <glyph glyph-name="H" unicode="H" horiz-adv-x="697" 
d="M530 403l58 297h67l-137 -700h-67l67 341h-342l-67 -341h-67l136 700h67l-57 -297h342z" />
    <glyph glyph-name="I" unicode="I" horiz-adv-x="288" 
d="M179 700h67l-137 -700h-67z" />
    <glyph glyph-name="J" unicode="J" horiz-adv-x="517" 
d="M319 198l97 502h67l-98 -507c-26 -134 -101 -201 -225 -201c-50 0 -90 17 -120 52c-29 35 -44 77 -44 127l65 14c0 -84 38 -131 111 -131c79 0 128 48 147 144z" />
    <glyph glyph-name="K" unicode="K" horiz-adv-x="576" 
d="M257 386l229 -386h-79l-225 371l-73 -371h-67l137 700h67l-58 -297l324 297h94z" />
    <glyph glyph-name="L" unicode="L" horiz-adv-x="502" 
d="M42 0l136 700h67l-124 -638h320l-13 -62h-386z" />
    <glyph glyph-name="M" unicode="M" horiz-adv-x="796" 
d="M42 0l137 700h76l109 -530l305 530h85l-137 -700h-67l112 572l-295 -508h-43l-103 508l-112 -572h-67z" />
    <glyph glyph-name="N" unicode="N" horiz-adv-x="709" 
d="M484 105l116 595h67l-137 -700h-77l-227 593l-117 -593h-67l137 700h77z" />
    <glyph glyph-name="O" unicode="O" horiz-adv-x="712" 
d="M423 708c72 0 130 -25 174 -75c45 -50 67 -118 67 -204c0 -124 -47 -246 -130 -331c-68 -71 -151 -106 -250 -106c-71 0 -129 25 -174 75c-44 50 -66 118 -66 203c0 125 47 247 130 332c68 71 151 106 249 106zM411 646c-83 0 -153 -35 -209 -104
c-57 -71 -89 -173 -89 -270c0 -137 68 -218 183 -218c84 0 154 35 210 104c57 71 89 171 89 268c0 139 -69 220 -184 220z" />
    <glyph glyph-name="P" unicode="P" horiz-adv-x="578" 
d="M332 314h-162l-62 -314h-67l137 700h222c113 0 180 -59 180 -156c0 -73 -23 -130 -69 -170c-45 -40 -105 -60 -179 -60zM232 638l-50 -262h166c96 0 163 60 163 157c0 70 -37 105 -112 105h-167z" />
    <glyph glyph-name="Q" unicode="Q" horiz-adv-x="712" 
d="M423 708c72 0 130 -25 174 -75c45 -50 67 -118 67 -204c0 -124 -46 -243 -129 -330l54 -66l-49 -41l-52 64c-57 -43 -125 -64 -204 -64c-71 0 -129 25 -174 75c-44 50 -66 118 -66 203c0 125 47 247 130 332c68 71 151 106 249 106zM411 646c-83 0 -153 -35 -209 -104
c-57 -71 -89 -173 -89 -270c0 -137 68 -218 183 -218c57 0 108 17 154 50l-58 72l48 41l56 -70l10 11c57 71 89 171 89 268c0 139 -69 220 -184 220z" />
    <glyph glyph-name="R" unicode="R" horiz-adv-x="596" 
d="M523 0h-74l-148 346h-125l-68 -346h-67l137 700h214c112 0 174 -56 174 -149c0 -123 -72 -189 -192 -202zM379 638h-147l-44 -230h147c108 0 162 44 162 132c0 65 -39 98 -118 98z" />
    <glyph glyph-name="S" unicode="S" horiz-adv-x="521" 
d="M477 594l-61 -34c-18 57 -52 86 -101 86c-71 0 -116 -48 -116 -123c0 -29 10 -54 34 -75c24 -20 38 -30 74 -50c87 -49 135 -97 135 -173c0 -70 -18 -124 -54 -163c-43 -47 -105 -70 -184 -70c-51 0 -94 18 -129 54s-52 81 -52 135l60 30c0 -43 12 -80 35 -111
c24 -31 57 -46 98 -46c96 0 157 55 157 151c0 25 -6 47 -18 66c-23 39 -44 50 -95 78c-77 43 -128 90 -128 170c0 113 78 189 195 189c77 0 130 -50 150 -114z" />
    <glyph glyph-name="T" unicode="T" horiz-adv-x="512" 
d="M274 638h-204l13 62h475l-13 -62h-204l-124 -638h-67z" />
    <glyph glyph-name="U" unicode="U" horiz-adv-x="669" 
d="M77 224l92 476h67l-93 -482c-3 -16 -4 -29 -4 -38c0 -84 40 -126 140 -126c111 0 182 71 201 164l93 482h67l-92 -476c-15 -81 -49 -140 -100 -177s-111 -55 -181 -55c-115 0 -195 64 -195 179c0 19 2 37 5 53z" />
    <glyph glyph-name="V" unicode="V" horiz-adv-x="553" 
d="M215 94l328 606h69l-377 -700h-69l-101 700h67z" />
    <glyph glyph-name="W" unicode="W" horiz-adv-x="885" 
d="M572 102l274 598h67l-323 -700h-67l-57 520l-252 -520h-67l-51 700h67l39 -598l252 524h62z" />
    <glyph glyph-name="X" unicode="X" horiz-adv-x="525" 
d="M244 384l-121 316h73l95 -260l195 260h78l-249 -326l142 -374h-69l-119 316l-241 -316h-76z" />
    <glyph glyph-name="Y" unicode="Y" horiz-adv-x="472" 
d="M120 0l60 304l-127 396h76l95 -331l229 331h79l-285 -396l-60 -304h-67z" />
    <glyph glyph-name="Z" unicode="Z" horiz-adv-x="546" 
d="M445 638h-333l12 62h427l-7 -32l-450 -606h350l-13 -62h-446l7 32z" />
    <glyph glyph-name="bracketleft" unicode="[" horiz-adv-x="320" 
d="M204 -50h-179l154 800h180l-11 -56h-119l-133 -688h119z" />
    <glyph glyph-name="backslash" unicode="\" horiz-adv-x="487" 
d="M353 -50l-280 800h65l280 -800h-65z" />
    <glyph glyph-name="bracketright" unicode="]" horiz-adv-x="320" 
d="M110 750h180l-155 -800h-179l10 56h119l133 688h-119z" />
    <glyph glyph-name="asciicircum" unicode="^" horiz-adv-x="556" 
d="M75 429l184 271h48l184 -271h-67l-141 213l-141 -213h-67z" />
    <glyph glyph-name="underscore" unicode="_" horiz-adv-x="468" 
d="M368 -56h-409l11 56h409z" />
    <glyph glyph-name="grave" unicode="`" horiz-adv-x="182" 
d="M61 700h93l43 -140h-51z" />
    <glyph glyph-name="a" unicode="a" horiz-adv-x="575" 
d="M437 433l13 71h65l-97 -504h-65l12 66c-51 -55 -96 -74 -164 -74c-57 0 -100 19 -129 58s-43 87 -43 146c0 91 25 166 74 226s116 90 199 90c68 0 113 -26 135 -79zM95 206c0 -92 40 -156 123 -156c42 0 78 13 109 40c63 55 89 133 89 214c0 92 -39 150 -122 150
c-62 0 -111 -26 -146 -77s-53 -108 -53 -171z" />
    <glyph glyph-name="b" unicode="b" horiz-adv-x="588" 
d="M32 0l138 708h65l-51 -268c36 43 100 72 160 72c115 0 175 -77 175 -208c0 -90 -24 -165 -72 -224s-115 -88 -202 -88c-61 0 -116 39 -133 83l-15 -75h-65zM255 50c63 0 111 24 146 72s53 105 53 171c0 105 -44 161 -124 161c-55 0 -101 -27 -138 -80s-56 -112 -56 -176
c0 -99 44 -148 119 -148z" />
    <glyph glyph-name="c" unicode="c" horiz-adv-x="525" 
d="M378 153l52 -22c-59 -100 -124 -139 -225 -139c-57 0 -100 20 -131 59c-30 40 -45 89 -45 148c0 84 25 157 75 219c51 63 118 94 202 94c92 0 152 -51 171 -139l-60 -22c-15 69 -55 103 -122 103c-62 0 -111 -25 -147 -76c-36 -50 -54 -109 -54 -176
c0 -93 42 -152 122 -152c66 0 120 34 162 103z" />
    <glyph glyph-name="d" unicode="d" horiz-adv-x="601" 
d="M443 433l53 275h65l-138 -708h-65l13 66c-43 -49 -98 -74 -167 -74c-115 0 -175 85 -175 201c0 90 25 166 75 227c51 61 118 92 201 92c60 0 114 -30 138 -79zM95 203c0 -88 42 -153 123 -153c62 0 111 27 148 80s55 111 55 172c0 96 -40 152 -124 152
c-43 0 -81 -14 -113 -41c-63 -53 -89 -131 -89 -210z" />
    <glyph glyph-name="e" unicode="e" horiz-adv-x="545" 
d="M479 280l-5 -28h-375c-5 -16 -7 -35 -7 -56c0 -91 44 -146 125 -146c71 0 116 36 171 113l51 -32c-54 -93 -132 -139 -233 -139c-112 0 -179 80 -179 207c0 51 11 99 33 146s55 87 98 119c44 32 94 48 149 48c112 0 178 -72 178 -181c0 -14 -2 -31 -6 -51zM296 454
c-79 0 -145 -59 -180 -144h306c0 96 -42 144 -126 144z" />
    <glyph glyph-name="f" unicode="f" horiz-adv-x="329" 
d="M122 446h-80l11 58h81l6 32c23 119 80 172 179 172c27 0 47 -4 62 -13l-24 -57c-16 8 -33 12 -50 12c-54 0 -88 -35 -102 -104l-8 -42h116l-11 -58h-117l-86 -446h-63z" />
    <glyph glyph-name="g" unicode="g" horiz-adv-x="508" 
d="M87 316c0 59 18 106 55 142s86 54 145 54c36 0 64 -8 83 -24l103 52l23 -53l-84 -46c13 -24 20 -50 20 -78c0 -116 -78 -189 -194 -189c-34 0 -65 8 -93 25c-39 -13 -58 -33 -58 -61c0 -29 18 -44 53 -44h123c89 0 133 -39 133 -118c0 -128 -87 -188 -236 -188
c-115 0 -180 58 -180 149c0 56 23 99 68 129c-16 14 -24 34 -24 59c0 52 29 89 86 111c-15 23 -23 50 -23 80zM250 40h-101c-15 0 -30 1 -45 3c-43 -21 -64 -54 -64 -100c0 -59 45 -99 125 -99c46 0 85 10 118 29s50 50 50 93c0 49 -28 74 -83 74zM281 458
c-76 0 -131 -58 -131 -134c0 -64 36 -96 89 -96c80 0 130 54 130 130c0 64 -36 100 -88 100z" />
    <glyph glyph-name="h" unicode="h" horiz-adv-x="580" 
d="M493 346l-67 -346h-63l65 338c3 13 4 25 4 38c0 48 -29 78 -82 78c-45 0 -88 -23 -131 -69c-42 -45 -70 -102 -83 -170l-40 -215h-63l136 708h63l-61 -314c49 79 116 118 200 118s126 -39 126 -118c0 -17 -1 -33 -4 -48z" />
    <glyph glyph-name="i" unicode="i" horiz-adv-x="259" 
d="M34 0l97 504h63l-97 -504h-63zM151 612c-19 20 -19 54 0 73c20 20 54 20 73 0c20 -19 20 -53 0 -73c-19 -19 -53 -19 -73 0z" />
    <glyph glyph-name="j" unicode="j" horiz-adv-x="259" 
d="M23 -55l108 559h63l-110 -568c-17 -91 -66 -135 -154 -148l-5 58c59 16 86 40 98 99zM151 612c-19 20 -19 54 0 73c20 20 54 20 73 0c20 -19 20 -53 0 -73c-19 -19 -53 -19 -73 0z" />
    <glyph glyph-name="k" unicode="k" horiz-adv-x="497" 
d="M33 0l137 708h63l-81 -422l247 218h86l-267 -234l185 -270h-78l-178 265l-51 -265h-63z" />
    <glyph glyph-name="l" unicode="l" horiz-adv-x="287" 
d="M48 0l136 708h63l-136 -708h-63z" />
    <glyph glyph-name="m" unicode="m" horiz-adv-x="846" 
d="M756 346l-67 -346h-63l65 338c4 20 6 36 6 47c0 46 -24 69 -73 69c-40 0 -78 -22 -115 -65c-36 -43 -61 -99 -74 -168l-43 -221h-63l66 338c4 18 6 33 6 44c0 48 -25 72 -74 72c-40 0 -78 -22 -115 -66c-36 -44 -61 -100 -74 -167l-42 -221h-63l97 504h63l-19 -98
c37 65 105 106 174 106c73 0 112 -36 116 -108c43 65 113 108 181 108c79 0 117 -41 117 -113c0 -14 -2 -32 -6 -53z" />
    <glyph glyph-name="n" unicode="n" horiz-adv-x="572" 
d="M483 346l-67 -346h-63l65 338c3 18 5 31 5 40c0 51 -26 76 -78 76c-41 0 -83 -23 -125 -68s-69 -100 -82 -165l-42 -221h-63l97 504h63l-21 -105c21 33 50 60 85 81c36 21 72 32 109 32c76 0 122 -43 122 -122c0 -9 -2 -24 -5 -44z" />
    <glyph glyph-name="o" unicode="o" horiz-adv-x="568" 
d="M29 207c0 85 23 154 70 209c55 64 125 96 210 96c120 0 191 -82 191 -215c0 -85 -23 -154 -70 -209c-55 -64 -125 -96 -210 -96c-120 0 -191 82 -191 215zM298 454c-59 0 -109 -25 -150 -75c-36 -44 -54 -99 -54 -166c0 -99 46 -163 137 -163c59 0 109 25 150 75
c36 44 54 99 54 166c0 99 -46 163 -137 163z" />
    <glyph glyph-name="p" unicode="p" horiz-adv-x="597" 
d="M115 71l-53 -275h-65l138 708h65l-13 -66c43 49 98 74 167 74c115 0 175 -85 175 -201c0 -90 -25 -166 -76 -227c-50 -61 -117 -92 -200 -92c-60 0 -114 30 -138 79zM463 301c0 88 -42 153 -123 153c-62 0 -111 -27 -148 -80s-55 -111 -55 -172c0 -96 40 -152 124 -152
c43 0 81 13 112 40c64 55 90 132 90 211z" />
    <glyph glyph-name="q" unicode="q" horiz-adv-x="574" 
d="M516 504l-137 -708h-65l51 268c-36 -43 -100 -72 -160 -72c-115 0 -176 77 -176 208c0 89 24 164 72 223c49 59 116 89 203 89c61 0 116 -39 133 -83l14 75h65zM294 454c-63 0 -112 -24 -147 -72s-53 -105 -53 -171c0 -105 45 -161 125 -161c55 0 101 27 138 80
s56 112 56 176c0 99 -44 148 -119 148z" />
    <glyph glyph-name="r" unicode="r" horiz-adv-x="415" 
d="M413 495l-26 -59c-19 12 -41 18 -65 18c-38 0 -75 -21 -110 -64s-60 -101 -75 -176l-41 -214h-63l97 504h63l-18 -90c35 59 102 98 167 98c21 0 45 -6 71 -17z" />
    <glyph glyph-name="s" unicode="s" horiz-adv-x="448" 
d="M253 512c60 0 105 -26 135 -78l-49 -36c-21 37 -52 56 -95 56c-49 0 -86 -31 -86 -79c0 -23 7 -39 26 -54c19 -13 28 -18 57 -31c77 -35 115 -80 115 -135c0 -108 -66 -163 -175 -163c-47 0 -85 14 -114 43s-45 62 -49 97l60 28c15 -73 53 -110 112 -110
c57 0 99 33 99 89c0 18 -5 34 -15 47c-19 28 -38 36 -77 53c-67 28 -104 63 -104 127c0 92 61 146 160 146z" />
    <glyph glyph-name="t" unicode="t" horiz-adv-x="343" 
d="M122 446h-87l11 58h87l32 163l73 41l-40 -204h130l-11 -58h-130l-61 -313c-2 -10 -3 -20 -3 -29c0 -36 18 -54 55 -54c27 0 49 5 68 16l6 -56c-24 -12 -54 -18 -91 -18c-60 0 -101 41 -101 113c0 9 2 25 6 49z" />
    <glyph glyph-name="u" unicode="u" horiz-adv-x="569" 
d="M59 158l67 346h63l-65 -338c-3 -18 -5 -31 -5 -40c0 -51 26 -76 78 -76c41 0 83 22 125 67s69 101 82 166l42 221h63l-97 -504h-63l21 105c-21 -33 -50 -61 -86 -82c-35 -21 -71 -31 -108 -31c-76 0 -122 43 -122 122c0 9 2 24 5 44z" />
    <glyph glyph-name="v" unicode="v" horiz-adv-x="435" 
d="M153 83l218 421h67l-261 -504h-69l-74 504h65z" />
    <glyph glyph-name="w" unicode="w" horiz-adv-x="718" 
d="M441 88l195 416h67l-246 -504h-65l-25 407l-183 -407h-65l-59 504h65l42 -416l185 416h63z" />
    <glyph glyph-name="x" unicode="x" horiz-adv-x="451" 
d="M191 276l-100 228h69l74 -176l141 176h76l-192 -235l115 -269h-69l-89 216l-175 -216h-75z" />
    <glyph glyph-name="y" unicode="y" horiz-adv-x="452" 
d="M167 93l219 411h73l-388 -708h-67l113 207l-81 501h67z" />
    <glyph glyph-name="z" unicode="z" horiz-adv-x="463" 
d="M333 446h-244l11 58h332l-6 -34l-325 -412h259l-11 -58h-350l5 30z" />
    <glyph glyph-name="braceleft" unicode="{" horiz-adv-x="316" 
d="M65 54l36 183c2 11 3 21 3 30c0 39 -18 55 -66 55l11 56c56 0 83 25 95 85l36 183c13 67 58 104 115 104h46l-11 -56h-30c-36 0 -51 -11 -59 -50l-39 -197c-11 -57 -37 -81 -81 -97c31 -11 46 -33 46 -66c0 -13 -1 -23 -2 -31l-38 -192c-1 -8 -2 -15 -2 -21
c0 -23 14 -34 42 -34h30l-11 -56h-46c-48 0 -78 26 -78 77c0 8 1 17 3 27z" />
    <glyph glyph-name="bar" unicode="|" horiz-adv-x="235" 
d="M105 -50v800h60v-800h-60z" />
    <glyph glyph-name="braceright" unicode="}" horiz-adv-x="316" 
d="M250 646l-36 -183c-2 -11 -3 -21 -3 -30c0 -39 18 -55 66 -55l-11 -56c-56 0 -83 -25 -95 -85l-36 -183c-13 -67 -58 -104 -115 -104h-46l11 56h30c36 0 51 11 59 50l39 197c11 57 37 81 81 97c-31 11 -46 33 -46 66c0 13 1 23 2 31l38 192c1 8 2 15 2 21
c0 23 -14 34 -42 34h-30l11 56h46c48 0 78 -26 78 -77c0 -8 -1 -17 -3 -27z" />
    <glyph glyph-name="asciitilde" unicode="~" horiz-adv-x="600" 
d="M96 283l-28 39c43 51 87 76 133 76c27 0 55 -9 86 -27s59 -27 83 -27c37 0 70 14 99 43l28 -39c-43 -51 -87 -76 -133 -76c-27 0 -56 9 -87 27s-58 27 -82 27c-37 0 -70 -14 -99 -43z" />
    <glyph glyph-name="uni00A0" unicode="&#xa0;" horiz-adv-x="222" 
 />
    <glyph glyph-name="exclamdown" unicode="&#xa1;" horiz-adv-x="331" 
d="M179 310l-78 -516h-86l124 516h40zM224 480c21 -20 21 -58 0 -79c-20 -20 -58 -20 -79 0c-20 21 -20 59 0 79c21 21 59 21 79 0z" />
    <glyph glyph-name="cent" unicode="&#xa2;" horiz-adv-x="546" 
d="M415 253l52 -22c-53 -91 -111 -131 -198 -138l-27 -143h-60l27 144c-46 7 -81 30 -106 68c-25 39 -37 84 -37 137c0 78 22 147 66 207c44 61 103 95 178 104l27 140h60l-27 -140c77 -9 128 -58 144 -137l-60 -22c-15 69 -55 103 -122 103c-62 0 -111 -25 -147 -76
c-36 -50 -54 -109 -54 -176c0 -93 42 -152 122 -152c66 0 120 34 162 103z" />
    <glyph glyph-name="sterling" unicode="&#xa3;" horiz-adv-x="555" 
d="M150 335h-84l11 58h62c-5 25 -7 52 -7 83c0 73 21 129 63 170s97 62 165 62c83 0 143 -60 158 -141l-57 -23c-19 73 -49 106 -112 106c-96 0 -154 -70 -154 -182c0 -21 2 -46 7 -75h167l-11 -58h-149v-31c0 -104 -40 -168 -121 -235c29 17 59 25 89 25c23 0 46 -8 71 -24
s46 -24 61 -24c22 0 40 6 55 17s34 34 59 67l41 -34c-27 -41 -52 -69 -77 -83s-55 -21 -90 -21c-26 0 -52 8 -78 23s-48 23 -67 23c-35 0 -74 -15 -117 -46l-37 55c99 81 155 156 155 256c0 13 -1 23 -3 32z" />
    <glyph glyph-name="currency" unicode="&#xa4;" horiz-adv-x="565" 
d="M78 63l-55 55l87 67c-25 36 -38 77 -38 122s13 86 38 122l-87 67l55 55l66 -85c35 29 76 43 123 43s88 -14 123 -43l66 85l55 -55l-87 -67c25 -36 38 -77 38 -122s-13 -86 -38 -122l87 -67l-55 -55l-66 85c-35 -29 -76 -43 -123 -43s-88 14 -123 43zM167 414
c-25 -27 -38 -63 -38 -107s13 -80 38 -108c25 -27 59 -41 100 -41s75 14 100 41c25 28 38 64 38 108s-13 80 -38 107c-25 28 -59 42 -100 42s-75 -14 -100 -42z" />
    <glyph glyph-name="yen" unicode="&#xa5;" horiz-adv-x="558" 
d="M233 360l-109 340h75l94 -329l221 329h79l-239 -340h130l-10 -56h-159l-17 -87h159l-11 -56h-159l-32 -161h-67l32 161h-159l11 56h159l17 87h-159l10 56h134z" />
    <glyph glyph-name="brokenbar" unicode="&#xa6;" horiz-adv-x="235" 
d="M105 -50v349h60v-349h-60zM165 750v-349h-60v349h60z" />
    <glyph glyph-name="section" unicode="&#xa7;" horiz-adv-x="574" 
d="M468 236c0 -67 -37 -108 -112 -152c21 -21 32 -53 32 -98c0 -57 -19 -105 -56 -142s-86 -56 -147 -56c-91 0 -155 61 -155 148l56 17c7 -64 45 -107 110 -107c35 0 65 12 90 36s37 54 37 90c-4 45 -9 67 -42 89c-12 9 -22 15 -30 20s-22 12 -42 22l-47 26
c-59 33 -88 76 -88 131c0 67 37 108 112 152c-21 21 -32 53 -32 98c0 57 18 105 55 142s87 56 148 56c91 0 155 -61 155 -148l-56 -17c-7 64 -45 107 -110 107c-35 0 -65 -12 -90 -36s-37 -54 -37 -90c4 -45 9 -66 42 -90l30 -19l41 -23c20 -10 36 -18 48 -25
c59 -33 88 -76 88 -131zM258 145l54 -26c23 10 45 25 64 44s29 39 29 60c0 31 -8 54 -36 75c-14 11 -26 20 -35 25c-9 6 -26 15 -51 27c-25 13 -42 22 -53 27c-23 -10 -45 -25 -64 -44s-29 -39 -29 -60c0 -31 8 -53 36 -76c14 -11 25 -19 34 -25z" />
    <glyph glyph-name="dieresis" unicode="&#xa8;" horiz-adv-x="287" 
d="M64 650c0 28 21 50 49 50s49 -22 49 -50c0 -27 -21 -48 -49 -48s-49 21 -49 48zM218 650c0 28 21 50 48 50c28 0 50 -22 50 -50c0 -27 -22 -48 -50 -48c-27 0 -48 21 -48 48z" />
    <glyph glyph-name="copyright" unicode="&#xa9;" horiz-adv-x="912" 
d="M186 71c-71 75 -106 168 -106 279s35 204 106 278c71 75 161 112 270 112s198 -37 269 -112c71 -74 107 -167 107 -278s-36 -204 -107 -279c-71 -74 -160 -111 -269 -111s-199 37 -270 111zM229 585c-58 -63 -87 -141 -87 -235s29 -172 87 -235c59 -63 134 -94 227 -94
s168 31 226 94c59 63 88 141 88 235s-29 172 -88 235c-58 63 -133 94 -226 94s-168 -31 -227 -94zM570 280l53 -14c-21 -84 -84 -132 -167 -132c-49 0 -94 18 -135 55c-40 37 -60 90 -60 161s20 124 60 161c41 37 86 55 135 55c83 0 146 -48 167 -132l-53 -14
c-20 61 -58 92 -114 92c-80 0 -136 -57 -136 -162s56 -162 136 -162c56 0 94 31 114 92z" />
    <glyph glyph-name="ordfeminine" unicode="&#xaa;" horiz-adv-x="416" 
d="M360 564v-264h-37l-10 63c-26 -45 -68 -67 -127 -67c-71 0 -123 43 -123 120c0 85 67 130 182 130h66v17c0 62 -30 93 -91 93c-47 0 -78 -24 -93 -72l-48 12c13 68 69 108 141 108c85 0 140 -43 140 -140zM119 416c0 -48 28 -72 72 -72c31 0 58 11 83 34s37 58 37 107v15
h-64c-85 0 -128 -28 -128 -84z" />
    <glyph glyph-name="guillemotleft" unicode="&#xab;" horiz-adv-x="558" 
d="M264 94l-224 195l12 48l297 189l-14 -75l-233 -144l175 -151zM444 94l-224 195l12 48l297 189l-14 -75l-233 -144l175 -151z" />
    <glyph glyph-name="logicalnot" unicode="&#xac;" horiz-adv-x="541" 
d="M405 322h-359v58h423v-238h-64v180z" />
    <glyph glyph-name="uni00AD" unicode="&#xad;" horiz-adv-x="479" 
d="M390 289h-329l11 56h329z" />
    <glyph glyph-name="registered" unicode="&#xae;" horiz-adv-x="912" 
d="M186 71c-71 75 -106 168 -106 279s35 204 106 278c71 75 161 112 270 112s198 -37 269 -112c71 -74 107 -167 107 -278s-36 -204 -107 -279c-71 -74 -160 -111 -269 -111s-199 37 -270 111zM229 585c-58 -63 -87 -141 -87 -235s29 -172 87 -235c59 -63 134 -94 227 -94
s168 31 226 94c59 63 88 141 88 235s-29 172 -88 235c-58 63 -133 94 -226 94s-168 -31 -227 -94zM628 137h-62l-126 182h-61v-182h-59v426h144c81 0 133 -49 133 -122c0 -60 -40 -107 -96 -118zM464 509h-85v-136h85c48 0 74 25 74 68c0 45 -25 68 -74 68z" />
    <glyph glyph-name="overscore" unicode="&#xaf;" horiz-adv-x="289" 
d="M314 644h-241l11 56h241z" />
    <glyph glyph-name="degree" unicode="&#xb0;" horiz-adv-x="356" 
d="M136 513c-20 21 -30 48 -30 80s10 58 30 79c21 21 47 32 79 32s58 -11 78 -32c21 -21 31 -47 31 -79s-10 -59 -31 -80c-20 -21 -46 -31 -78 -31s-58 10 -79 31zM171 638c-23 -23 -23 -67 0 -90s65 -23 88 0s23 67 0 90s-65 23 -88 0z" />
    <glyph glyph-name="plusminus" unicode="&#xb1;" horiz-adv-x="552" 
d="M304 426h177v-56h-177v-177h-56v177h-177v56h177v176h56v-176zM481 0h-410v56h410v-56z" />
    <glyph glyph-name="uni00B2" unicode="&#xb2;" horiz-adv-x="447" 
d="M332 300h-249l3 19l182 185c13 13 22 23 28 30c13 16 26 41 26 68c0 35 -16 52 -47 52c-40 0 -69 -31 -80 -76l-50 14c16 69 65 112 136 112c60 0 96 -37 96 -96c0 -41 -19 -82 -57 -121l-135 -137h157z" />
    <glyph glyph-name="uni00B3" unicode="&#xb3;" horiz-adv-x="429" 
d="M100 414l53 7c0 -51 21 -77 64 -77c53 0 86 39 86 96c0 39 -18 69 -57 69c-13 0 -26 -3 -37 -10l-20 35l107 118h-134l10 48h216l-4 -17l-125 -135c4 1 9 2 16 2c49 0 84 -40 84 -101c0 -89 -58 -153 -150 -153c-67 0 -109 49 -109 118z" />
    <glyph glyph-name="acute" unicode="&#xb4;" horiz-adv-x="196" 
d="M111 560h-56l97 140h95z" />
    <glyph glyph-name="mu" unicode="&#xb5;" horiz-adv-x="583" 
d="M144 -204h-62v708h62v-338c0 -77 34 -115 103 -115c47 0 86 21 117 63c31 43 46 99 46 169v221h62v-504h-62v105c-35 -68 -101 -113 -173 -113c-37 0 -68 9 -93 26v-222z" />
    <glyph glyph-name="mu" unicode="&#x3bc;" horiz-adv-x="583" 
d="M144 -204h-62v708h62v-338c0 -77 34 -115 103 -115c47 0 86 21 117 63c31 43 46 99 46 169v221h62v-504h-62v105c-35 -68 -101 -113 -173 -113c-37 0 -68 9 -93 26v-222z" />
    <glyph glyph-name="paragraph" unicode="&#xb6;" horiz-adv-x="656" 
d="M91 501c0 57 20 105 59 142c39 38 89 57 150 57h331l-12 -62h-72l-163 -842h-65l163 842h-128l-164 -842h-65l108 558c-84 0 -142 60 -142 147z" />
    <glyph glyph-name="middot" unicode="&#xb7;" horiz-adv-x="265" 
d="M88 349c0 44 56 69 87 36c33 -31 8 -87 -36 -87c-31 0 -51 20 -51 51z" />
    <glyph glyph-name="cedilla" unicode="&#xb8;" horiz-adv-x="184" 
d="M69 -60h56l-109 -154l-69 31z" />
    <glyph glyph-name="uni00B9" unicode="&#xb9;" horiz-adv-x="325" 
d="M109 641l130 59h17l-77 -400h-51l63 325l-93 -41z" />
    <glyph glyph-name="ordmasculine" unicode="&#xba;" horiz-adv-x="419" 
d="M95 357c-34 41 -51 88 -51 143s17 102 51 143s79 61 134 61s100 -20 134 -61s51 -88 51 -143s-17 -102 -51 -143s-79 -61 -134 -61s-100 20 -134 61zM132 610c-23 -31 -35 -67 -35 -110s12 -79 35 -110s56 -46 97 -46s74 15 97 46s35 67 35 110s-12 79 -35 110
s-56 46 -97 46s-74 -15 -97 -46z" />
    <glyph glyph-name="guillemotright" unicode="&#xbb;" horiz-adv-x="558" 
d="M101 526l224 -195l-10 -44l-299 -193l14 75l230 145l-173 148zM311 526l224 -195l-10 -44l-299 -193l14 75l230 145l-173 148z" />
    <glyph glyph-name="onequarter" unicode="&#xbc;" horiz-adv-x="911" 
d="M88 11l680 715l36 -37l-680 -715zM183 641l130 59h17l-77 -400h-51l63 325l-93 -41zM650 0h-51l17 83h-176l3 17l219 300h65l-52 -269h52l-9 -48h-52zM662 326l-140 -195h103z" />
    <glyph glyph-name="onehalf" unicode="&#xbd;" horiz-adv-x="922" 
d="M88 11l680 715l36 -37l-680 -715zM173 641l130 59h17l-77 -400h-51l63 325l-93 -41zM762 0h-249l3 19l182 185c13 13 22 23 28 30c13 16 26 41 26 68c0 35 -16 52 -47 52c-40 0 -69 -31 -80 -76l-50 14c16 69 65 112 136 112c60 0 96 -37 96 -96c0 -41 -19 -82 -57 -121
l-135 -137h157z" />
    <glyph glyph-name="threequarters" unicode="&#xbe;" horiz-adv-x="964" 
d="M141 11l680 715l36 -37l-680 -715zM100 414l53 7c0 -51 21 -77 64 -77c53 0 86 39 86 96c0 39 -18 69 -57 69c-13 0 -26 -3 -37 -10l-20 35l107 118h-134l10 48h216l-4 -17l-125 -135c4 1 9 2 16 2c49 0 84 -40 84 -101c0 -89 -58 -153 -150 -153c-67 0 -109 49 -109 118
zM691 0h-51l17 83h-176l3 17l219 300h65l-52 -269h52l-9 -48h-52zM703 326l-140 -195h103z" />
    <glyph glyph-name="questiondown" unicode="&#xbf;" horiz-adv-x="440" 
d="M131 167l-48 22c31 81 73 108 141 108c61 0 109 -47 109 -110c0 -75 -37 -111 -110 -144l-96 -42c-49 -21 -70 -43 -70 -83c0 -52 27 -78 81 -78c55 0 94 36 117 107l58 -18c-30 -95 -91 -143 -182 -143c-89 0 -137 51 -137 130c0 57 34 100 101 131l102 46
c51 23 77 46 77 90c0 36 -25 60 -58 60c-39 0 -61 -23 -85 -76zM303 480c21 -20 21 -58 0 -79c-20 -20 -58 -20 -79 0c-20 21 -20 59 0 79c21 21 59 21 79 0z" />
    <glyph glyph-name="Agrave" unicode="&#xc0;" horiz-adv-x="574" 
d="M-54 0l379 700h63l116 -700h-68l-31 199h-283l-109 -199h-67zM396 261l-55 349l-186 -349h241zM258 896h93l43 -140h-51z" />
    <glyph glyph-name="Aacute" unicode="&#xc1;" horiz-adv-x="574" 
d="M-54 0l379 700h63l116 -700h-68l-31 199h-283l-109 -199h-67zM396 261l-55 349l-186 -349h241zM373 756h-56l97 140h95z" />
    <glyph glyph-name="Acircumflex" unicode="&#xc2;" horiz-adv-x="574" 
d="M-54 0l379 700h63l116 -700h-68l-31 199h-283l-109 -199h-67zM396 261l-55 349l-186 -349h241zM285 762h-77l164 151h24l120 -151h-72l-68 89z" />
    <glyph glyph-name="Atilde" unicode="&#xc3;" horiz-adv-x="574" 
d="M-54 0l379 700h63l116 -700h-68l-31 199h-283l-109 -199h-67zM396 261l-55 349l-186 -349h241zM215 791l-30 29c34 46 70 69 109 69c24 0 47 -7 68 -21c22 -13 40 -20 55 -20c24 0 49 12 74 36l30 -29c-34 -46 -70 -69 -109 -69c-24 0 -47 7 -69 20c-21 14 -39 21 -54 21
c-24 0 -49 -12 -74 -36z" />
    <glyph glyph-name="Adieresis" unicode="&#xc4;" horiz-adv-x="574" 
d="M-54 0l379 700h63l116 -700h-68l-31 199h-283l-109 -199h-67zM396 261l-55 349l-186 -349h241zM243 846c0 28 21 50 49 50s49 -22 49 -50c0 -27 -21 -48 -49 -48s-49 21 -49 48zM397 846c0 28 21 50 48 50c28 0 50 -22 50 -50c0 -27 -22 -48 -50 -48c-27 0 -48 21 -48 48
z" />
    <glyph glyph-name="Aring" unicode="&#xc5;" horiz-adv-x="574" 
d="M-54 0l379 700h63l116 -700h-68l-31 199h-283l-109 -199h-67zM396 261l-55 349l-186 -349h241zM287 849c0 55 42 98 97 98c56 0 97 -42 97 -98c0 -53 -41 -94 -97 -94c-55 0 -97 41 -97 94zM384 798c31 0 51 21 51 52c0 32 -20 54 -51 54c-29 0 -51 -23 -51 -54
s22 -52 51 -52z" />
    <glyph glyph-name="AE" unicode="&#xc6;" horiz-adv-x="814" 
d="M-54 0l442 700h433l-13 -62h-322l-45 -234h262l-12 -62h-262l-54 -280h332l-13 -62h-399l39 199h-191l-128 -199h-69zM414 610h-11l-221 -349h164z" />
    <glyph glyph-name="Ccedilla" unicode="&#xc7;" horiz-adv-x="659" 
d="M522 211l62 -19c-65 -133 -164 -200 -298 -200c-70 0 -128 25 -174 75c-45 50 -68 118 -68 204c0 75 15 146 44 211s74 119 133 162s127 64 204 64c63 0 114 -19 153 -57s61 -86 67 -143l-62 -17c-15 103 -71 155 -170 155c-59 0 -112 -18 -159 -54
c-93 -71 -140 -188 -140 -313c0 -140 68 -225 184 -225c102 0 177 52 224 157zM283 -60h56l-109 -154l-69 31z" />
    <glyph glyph-name="Egrave" unicode="&#xc8;" horiz-adv-x="561" 
d="M42 0l136 700h390l-13 -62h-323l-45 -234h263l-12 -62h-263l-54 -280h333l-13 -62h-399zM291 896h93l43 -140h-51z" />
    <glyph glyph-name="Eacute" unicode="&#xc9;" horiz-adv-x="561" 
d="M42 0l136 700h390l-13 -62h-323l-45 -234h263l-12 -62h-263l-54 -280h333l-13 -62h-399zM366 756h-56l97 140h95z" />
    <glyph glyph-name="Ecircumflex" unicode="&#xca;" horiz-adv-x="561" 
d="M42 0l136 700h390l-13 -62h-323l-45 -234h263l-12 -62h-263l-54 -280h333l-13 -62h-399zM302 762h-77l164 151h24l120 -151h-72l-68 89z" />
    <glyph glyph-name="Edieresis" unicode="&#xcb;" horiz-adv-x="561" 
d="M42 0l136 700h390l-13 -62h-323l-45 -234h263l-12 -62h-263l-54 -280h333l-13 -62h-399zM263 846c0 28 21 50 49 50s49 -22 49 -50c0 -27 -21 -48 -49 -48s-49 21 -49 48zM417 846c0 28 21 50 48 50c28 0 50 -22 50 -50c0 -27 -22 -48 -50 -48c-27 0 -48 21 -48 48z" />
    <glyph glyph-name="Igrave" unicode="&#xcc;" horiz-adv-x="288" 
d="M179 700h67l-137 -700h-67zM119 896h93l43 -140h-51z" />
    <glyph glyph-name="Iacute" unicode="&#xcd;" horiz-adv-x="288" 
d="M179 700h67l-137 -700h-67zM225 756h-56l97 140h95z" />
    <glyph glyph-name="Icircumflex" unicode="&#xce;" horiz-adv-x="288" 
d="M179 700h67l-137 -700h-67zM147 762h-77l164 151h24l120 -151h-72l-68 89z" />
    <glyph glyph-name="Idieresis" unicode="&#xcf;" horiz-adv-x="288" 
d="M179 700h67l-137 -700h-67zM106 846c0 28 21 50 49 50s49 -22 49 -50c0 -27 -21 -48 -49 -48s-49 21 -49 48zM260 846c0 28 21 50 48 50c28 0 50 -22 50 -50c0 -27 -22 -48 -50 -48c-27 0 -48 21 -48 48z" />
    <glyph glyph-name="Eth" unicode="&#xd0;" horiz-adv-x="660" 
d="M112 381l61 319h175c81 0 146 -25 193 -74s71 -115 71 -200c0 -77 -15 -147 -46 -211c-31 -63 -77 -115 -138 -155s-132 -60 -212 -60h-179l63 319h-64l12 62h64zM341 638h-114l-50 -257h139l-12 -62h-139l-49 -257h102c97 0 176 34 235 103c60 69 90 154 90 254
c0 145 -74 219 -202 219z" />
    <glyph glyph-name="Ntilde" unicode="&#xd1;" horiz-adv-x="709" 
d="M484 105l116 595h67l-137 -700h-77l-227 593l-117 -593h-67l137 700h77zM304 791l-30 29c34 46 70 69 109 69c24 0 47 -7 68 -21c22 -13 40 -20 55 -20c24 0 49 12 74 36l30 -29c-34 -46 -70 -69 -109 -69c-24 0 -47 7 -69 20c-21 14 -39 21 -54 21
c-24 0 -49 -12 -74 -36z" />
    <glyph glyph-name="Ograve" unicode="&#xd2;" horiz-adv-x="712" 
d="M423 708c72 0 130 -25 174 -75c45 -50 67 -118 67 -204c0 -124 -47 -246 -130 -331c-68 -71 -151 -106 -250 -106c-71 0 -129 25 -174 75c-44 50 -66 118 -66 203c0 125 47 247 130 332c68 71 151 106 249 106zM411 646c-83 0 -153 -35 -209 -104
c-57 -71 -89 -173 -89 -270c0 -137 68 -218 183 -218c84 0 154 35 210 104c57 71 89 171 89 268c0 139 -69 220 -184 220zM346 896h93l43 -140h-51z" />
    <glyph glyph-name="Oacute" unicode="&#xd3;" horiz-adv-x="712" 
d="M423 708c72 0 130 -25 174 -75c45 -50 67 -118 67 -204c0 -124 -47 -246 -130 -331c-68 -71 -151 -106 -250 -106c-71 0 -129 25 -174 75c-44 50 -66 118 -66 203c0 125 47 247 130 332c68 71 151 106 249 106zM411 646c-83 0 -153 -35 -209 -104
c-57 -71 -89 -173 -89 -270c0 -137 68 -218 183 -218c84 0 154 35 210 104c57 71 89 171 89 268c0 139 -69 220 -184 220zM422 756h-56l97 140h95z" />
    <glyph glyph-name="Ocircumflex" unicode="&#xd4;" horiz-adv-x="712" 
d="M423 708c72 0 130 -25 174 -75c45 -50 67 -118 67 -204c0 -124 -47 -246 -130 -331c-68 -71 -151 -106 -250 -106c-71 0 -129 25 -174 75c-44 50 -66 118 -66 203c0 125 47 247 130 332c68 71 151 106 249 106zM411 646c-83 0 -153 -35 -209 -104
c-57 -71 -89 -173 -89 -270c0 -137 68 -218 183 -218c84 0 154 35 210 104c57 71 89 171 89 268c0 139 -69 220 -184 220zM347 762h-77l164 151h24l120 -151h-72l-68 89z" />
    <glyph glyph-name="Otilde" unicode="&#xd5;" horiz-adv-x="712" 
d="M423 708c72 0 130 -25 174 -75c45 -50 67 -118 67 -204c0 -124 -47 -246 -130 -331c-68 -71 -151 -106 -250 -106c-71 0 -129 25 -174 75c-44 50 -66 118 -66 203c0 125 47 247 130 332c68 71 151 106 249 106zM411 646c-83 0 -153 -35 -209 -104
c-57 -71 -89 -173 -89 -270c0 -137 68 -218 183 -218c84 0 154 35 210 104c57 71 89 171 89 268c0 139 -69 220 -184 220zM316 791l-30 29c34 46 70 69 109 69c24 0 47 -7 68 -21c22 -13 40 -20 55 -20c24 0 49 12 74 36l30 -29c-34 -46 -70 -69 -109 -69
c-24 0 -47 7 -69 20c-21 14 -39 21 -54 21c-24 0 -49 -12 -74 -36z" />
    <glyph glyph-name="Odieresis" unicode="&#xd6;" horiz-adv-x="712" 
d="M423 708c72 0 130 -25 174 -75c45 -50 67 -118 67 -204c0 -124 -47 -246 -130 -331c-68 -71 -151 -106 -250 -106c-71 0 -129 25 -174 75c-44 50 -66 118 -66 203c0 125 47 247 130 332c68 71 151 106 249 106zM411 646c-83 0 -153 -35 -209 -104
c-57 -71 -89 -173 -89 -270c0 -137 68 -218 183 -218c84 0 154 35 210 104c57 71 89 171 89 268c0 139 -69 220 -184 220zM330 846c0 28 21 50 49 50s49 -22 49 -50c0 -27 -21 -48 -49 -48s-49 21 -49 48zM484 846c0 28 21 50 48 50c28 0 50 -22 50 -50
c0 -27 -22 -48 -50 -48c-27 0 -48 21 -48 48z" />
    <glyph glyph-name="multiply" unicode="&#xd7;" horiz-adv-x="526" 
d="M302 316l154 -154l-40 -39l-153 153l-154 -153l-39 39l153 154l-153 153l39 40l154 -154l152 153l40 -40z" />
    <glyph glyph-name="Oslash" unicode="&#xd8;" horiz-adv-x="712" 
d="M423 708c63 0 116 -20 159 -60l62 70l42 -39l-67 -75c30 -49 45 -108 45 -175c0 -124 -47 -246 -130 -331c-68 -71 -151 -106 -250 -106c-63 0 -116 20 -159 59l-62 -69l-42 39l67 75c-29 47 -44 105 -44 174c0 125 47 247 130 332c68 71 151 106 249 106zM595 426
c0 47 -8 88 -25 123l-400 -447c32 -32 74 -48 126 -48c84 0 154 35 210 104c57 71 89 171 89 268zM411 646c-83 0 -153 -35 -209 -104c-57 -71 -89 -173 -89 -270c0 -48 8 -88 24 -121l400 447c-32 32 -74 48 -126 48z" />
    <glyph glyph-name="Ugrave" unicode="&#xd9;" horiz-adv-x="669" 
d="M77 224l92 476h67l-93 -482c-3 -16 -4 -29 -4 -38c0 -84 40 -126 140 -126c111 0 182 71 201 164l93 482h67l-92 -476c-15 -81 -49 -140 -100 -177s-111 -55 -181 -55c-115 0 -195 64 -195 179c0 19 2 37 5 53zM324 896h93l43 -140h-51z" />
    <glyph glyph-name="Uacute" unicode="&#xda;" horiz-adv-x="669" 
d="M77 224l92 476h67l-93 -482c-3 -16 -4 -29 -4 -38c0 -84 40 -126 140 -126c111 0 182 71 201 164l93 482h67l-92 -476c-15 -81 -49 -140 -100 -177s-111 -55 -181 -55c-115 0 -195 64 -195 179c0 19 2 37 5 53zM405 756h-56l97 140h95z" />
    <glyph glyph-name="Ucircumflex" unicode="&#xdb;" horiz-adv-x="669" 
d="M77 224l92 476h67l-93 -482c-3 -16 -4 -29 -4 -38c0 -84 40 -126 140 -126c111 0 182 71 201 164l93 482h67l-92 -476c-15 -81 -49 -140 -100 -177s-111 -55 -181 -55c-115 0 -195 64 -195 179c0 19 2 37 5 53zM333 762h-77l164 151h24l120 -151h-72l-68 89z" />
    <glyph glyph-name="Udieresis" unicode="&#xdc;" horiz-adv-x="669" 
d="M77 224l92 476h67l-93 -482c-3 -16 -4 -29 -4 -38c0 -84 40 -126 140 -126c111 0 182 71 201 164l93 482h67l-92 -476c-15 -81 -49 -140 -100 -177s-111 -55 -181 -55c-115 0 -195 64 -195 179c0 19 2 37 5 53zM298 846c0 28 21 50 49 50s49 -22 49 -50
c0 -27 -21 -48 -49 -48s-49 21 -49 48zM452 846c0 28 21 50 48 50c28 0 50 -22 50 -50c0 -27 -22 -48 -50 -48c-27 0 -48 21 -48 48z" />
    <glyph glyph-name="Yacute" unicode="&#xdd;" horiz-adv-x="472" 
d="M120 0l60 304l-127 396h76l95 -331l229 331h79l-285 -396l-60 -304h-67zM291 756h-56l97 140h95z" />
    <glyph glyph-name="Thorn" unicode="&#xde;" horiz-adv-x="579" 
d="M301 157h-162l-32 -157h-65l136 700h65l-30 -157h156c113 0 180 -59 180 -156c0 -73 -23 -130 -69 -170c-45 -40 -105 -60 -179 -60zM201 481l-50 -262h166c96 0 163 60 163 157c0 70 -37 105 -112 105h-167z" />
    <glyph glyph-name="germandbls" unicode="&#xdf;" horiz-adv-x="581" 
d="M115 354h-54l11 56h54l17 90c27 140 112 208 224 208c91 0 147 -58 147 -149c0 -85 -48 -155 -127 -176c60 -17 112 -77 112 -157c0 -151 -96 -234 -243 -234c-31 0 -58 2 -83 7l12 58c22 -5 45 -7 68 -7c105 0 181 58 181 163c0 89 -54 141 -141 141h-32l11 56h38
c83 0 141 53 141 134c0 71 -32 106 -95 106c-73 0 -128 -49 -148 -153l-97 -497h-65z" />
    <glyph glyph-name="agrave" unicode="&#xe0;" horiz-adv-x="575" 
d="M515 504l-97 -504h-65l12 66c-51 -55 -96 -74 -164 -74c-57 0 -100 19 -129 58s-43 87 -43 146c0 91 25 166 74 226s116 90 199 90c68 0 113 -26 135 -79l13 71h65zM95 206c0 -92 40 -156 123 -156c42 0 78 13 109 40s54 60 68 97s21 76 21 117c0 92 -39 150 -122 150
c-62 0 -111 -26 -146 -77s-53 -108 -53 -171zM245 700h93l43 -140h-51z" />
    <glyph glyph-name="aacute" unicode="&#xe1;" horiz-adv-x="575" 
d="M515 504l-97 -504h-65l12 66c-51 -55 -96 -74 -164 -74c-57 0 -100 19 -129 58s-43 87 -43 146c0 91 25 166 74 226s116 90 199 90c68 0 113 -26 135 -79l13 71h65zM95 206c0 -92 40 -156 123 -156c42 0 78 13 109 40s54 60 68 97s21 76 21 117c0 92 -39 150 -122 150
c-62 0 -111 -26 -146 -77s-53 -108 -53 -171zM315 560h-56l97 140h95z" />
    <glyph glyph-name="acircumflex" unicode="&#xe2;" horiz-adv-x="575" 
d="M515 504l-97 -504h-65l12 66c-51 -55 -96 -74 -164 -74c-57 0 -100 19 -129 58s-43 87 -43 146c0 91 25 166 74 226s116 90 199 90c68 0 113 -26 135 -79l13 71h65zM95 206c0 -92 40 -156 123 -156c42 0 78 13 109 40s54 60 68 97s21 76 21 117c0 92 -39 150 -122 150
c-62 0 -111 -26 -146 -77s-53 -108 -53 -171zM255 566h-77l164 151h24l120 -151h-72l-68 89z" />
    <glyph glyph-name="atilde" unicode="&#xe3;" horiz-adv-x="576" 
d="M515 504l-97 -504h-65l12 66c-51 -55 -96 -74 -164 -74c-57 0 -100 19 -129 58s-43 87 -43 146c0 91 25 166 74 226s116 90 199 90c68 0 113 -26 135 -79l13 71h65zM95 206c0 -92 40 -156 123 -156c42 0 78 13 109 40s54 60 68 97s21 76 21 117c0 92 -39 150 -122 150
c-62 0 -111 -26 -146 -77s-53 -108 -53 -171zM210 595l-30 29c34 46 70 69 109 69c24 0 47 -7 68 -21c22 -13 40 -20 55 -20c24 0 49 12 74 36l30 -29c-34 -46 -70 -69 -109 -69c-24 0 -47 7 -69 20c-21 14 -39 21 -54 21c-24 0 -49 -12 -74 -36z" />
    <glyph glyph-name="adieresis" unicode="&#xe4;" horiz-adv-x="575" 
d="M515 504l-97 -504h-65l12 66c-51 -55 -96 -74 -164 -74c-57 0 -100 19 -129 58s-43 87 -43 146c0 91 25 166 74 226s116 90 199 90c68 0 113 -26 135 -79l13 71h65zM95 206c0 -92 40 -156 123 -156c42 0 78 13 109 40s54 60 68 97s21 76 21 117c0 92 -39 150 -122 150
c-62 0 -111 -26 -146 -77s-53 -108 -53 -171zM215 650c0 28 21 50 49 50s49 -22 49 -50c0 -27 -21 -48 -49 -48s-49 21 -49 48zM369 650c0 28 21 50 48 50c28 0 50 -22 50 -50c0 -27 -22 -48 -50 -48c-27 0 -48 21 -48 48z" />
    <glyph glyph-name="aring" unicode="&#xe5;" horiz-adv-x="575" 
d="M515 504l-97 -504h-65l12 66c-51 -55 -96 -74 -164 -74c-57 0 -100 19 -129 58s-43 87 -43 146c0 91 25 166 74 226s116 90 199 90c68 0 113 -26 135 -79l13 71h65zM95 206c0 -92 40 -156 123 -156c42 0 78 13 109 40s54 60 68 97s21 76 21 117c0 92 -39 150 -122 150
c-62 0 -111 -26 -146 -77s-53 -108 -53 -171zM246 653c0 55 42 98 97 98c56 0 97 -42 97 -98c0 -53 -41 -94 -97 -94c-55 0 -97 41 -97 94zM343 602c31 0 51 21 51 52c0 32 -20 54 -51 54c-29 0 -51 -23 -51 -54s22 -52 51 -52z" />
    <glyph glyph-name="ae" unicode="&#xe6;" horiz-adv-x="879" 
d="M813 280l-5 -28h-375c-4 -19 -6 -37 -6 -56c0 -91 43 -146 124 -146c68 0 125 35 170 104l52 -23c-67 -103 -136 -139 -233 -139c-83 0 -137 38 -164 113c-63 -83 -124 -113 -204 -113c-39 0 -73 13 -101 38s-42 60 -42 103c0 124 95 177 239 177h109l4 22
c3 11 4 23 4 36c0 53 -33 86 -96 86c-60 0 -103 -31 -130 -94l-57 14c27 87 106 138 198 138c69 0 121 -33 141 -94c54 63 121 94 200 94c112 0 178 -72 178 -181c0 -14 -2 -31 -6 -51zM366 256h-102c-97 0 -170 -38 -170 -122c0 -48 34 -84 89 -84c84 0 158 63 179 183z
M630 454c-79 0 -145 -59 -180 -144h306c0 96 -42 144 -126 144z" />
    <glyph glyph-name="ccedilla" unicode="&#xe7;" horiz-adv-x="525" 
d="M378 153l52 -22c-59 -100 -124 -139 -225 -139c-57 0 -100 20 -131 59c-30 40 -45 89 -45 148c0 84 25 157 75 219c51 63 118 94 202 94c92 0 152 -51 171 -139l-60 -22c-15 69 -55 103 -122 103c-62 0 -111 -25 -147 -76c-36 -50 -54 -109 -54 -176
c0 -93 42 -152 122 -152c66 0 120 34 162 103zM186 -60h56l-109 -154l-69 31z" />
    <glyph glyph-name="egrave" unicode="&#xe8;" horiz-adv-x="545" 
d="M479 280l-5 -28h-375c-5 -16 -7 -35 -7 -56c0 -91 44 -146 125 -146c71 0 116 36 171 113l51 -32c-54 -93 -132 -139 -233 -139c-112 0 -179 80 -179 207c0 51 11 99 33 146s55 87 98 119c44 32 94 48 149 48c112 0 178 -72 178 -181c0 -14 -2 -31 -6 -51zM296 454
c-79 0 -145 -59 -180 -144h306c0 96 -42 144 -126 144zM237 700h93l43 -140h-51z" />
    <glyph glyph-name="eacute" unicode="&#xe9;" horiz-adv-x="545" 
d="M479 280l-5 -28h-375c-5 -16 -7 -35 -7 -56c0 -91 44 -146 125 -146c71 0 116 36 171 113l51 -32c-54 -93 -132 -139 -233 -139c-112 0 -179 80 -179 207c0 51 11 99 33 146s55 87 98 119c44 32 94 48 149 48c112 0 178 -72 178 -181c0 -14 -2 -31 -6 -51zM296 454
c-79 0 -145 -59 -180 -144h306c0 96 -42 144 -126 144zM314 560h-56l97 140h95z" />
    <glyph glyph-name="ecircumflex" unicode="&#xea;" horiz-adv-x="545" 
d="M479 280l-5 -28h-375c-5 -16 -7 -35 -7 -56c0 -91 44 -146 125 -146c71 0 116 36 171 113l51 -32c-54 -93 -132 -139 -233 -139c-112 0 -179 80 -179 207c0 51 11 99 33 146s55 87 98 119c44 32 94 48 149 48c112 0 178 -72 178 -181c0 -14 -2 -31 -6 -51zM296 454
c-79 0 -145 -59 -180 -144h306c0 96 -42 144 -126 144zM240 566h-77l164 151h24l120 -151h-72l-68 89z" />
    <glyph glyph-name="edieresis" unicode="&#xeb;" horiz-adv-x="545" 
d="M479 280l-5 -28h-375c-5 -16 -7 -35 -7 -56c0 -91 44 -146 125 -146c71 0 116 36 171 113l51 -32c-54 -93 -132 -139 -233 -139c-112 0 -179 80 -179 207c0 51 11 99 33 146s55 87 98 119c44 32 94 48 149 48c112 0 178 -72 178 -181c0 -14 -2 -31 -6 -51zM296 454
c-79 0 -145 -59 -180 -144h306c0 96 -42 144 -126 144zM215 650c0 28 21 50 49 50s49 -22 49 -50c0 -27 -21 -48 -49 -48s-49 21 -49 48zM369 650c0 28 21 50 48 50c28 0 50 -22 50 -50c0 -27 -22 -48 -50 -48c-27 0 -48 21 -48 48z" />
    <glyph glyph-name="igrave" unicode="&#xec;" horiz-adv-x="259" 
d="M34 0l97 504h63l-98 -504h-62zM63 700h93l43 -140h-51z" />
    <glyph glyph-name="iacute" unicode="&#xed;" horiz-adv-x="259" 
d="M34 0l97 504h63l-98 -504h-62zM146 560h-56l97 140h95z" />
    <glyph glyph-name="icircumflex" unicode="&#xee;" horiz-adv-x="259" 
d="M34 0l97 504h63l-98 -504h-62zM77 566h-77l164 151h24l120 -151h-72l-68 89z" />
    <glyph glyph-name="idieresis" unicode="&#xef;" horiz-adv-x="259" 
d="M34 0l97 504h63l-98 -504h-62zM44 650c0 28 21 50 49 50s49 -22 49 -50c0 -27 -21 -48 -49 -48s-49 21 -49 48zM198 650c0 28 21 50 48 50c28 0 50 -22 50 -50c0 -27 -22 -48 -50 -48c-27 0 -48 21 -48 48z" />
    <glyph glyph-name="eth" unicode="&#xf0;" horiz-adv-x="573" 
d="M336 619l-59 -68l-36 30l58 67c-17 11 -42 24 -75 39l38 43c30 -15 55 -28 74 -41l49 56l36 -30l-48 -54c84 -68 132 -160 132 -316c0 -104 -24 -189 -72 -255c-47 -65 -119 -98 -214 -98c-58 0 -104 20 -139 60c-34 41 -51 93 -51 158c0 85 26 156 78 214
c52 59 120 88 204 88c57 0 98 -19 125 -57c-8 61 -41 115 -100 164zM300 454c-59 0 -108 -23 -147 -69s-59 -102 -59 -169c0 -101 49 -166 137 -166c61 0 109 23 146 70s55 102 55 165c0 113 -44 169 -132 169z" />
    <glyph glyph-name="ntilde" unicode="&#xf1;" horiz-adv-x="572" 
d="M483 346l-67 -346h-63l65 338c3 18 5 31 5 40c0 51 -26 76 -78 76c-41 0 -83 -23 -125 -68s-69 -100 -82 -165l-42 -221h-63l97 504h63l-21 -105c21 33 50 60 85 81c36 21 72 32 109 32c76 0 122 -43 122 -122c0 -9 -2 -24 -5 -44zM201 595l-30 29c34 46 70 69 109 69
c24 0 47 -7 68 -21c22 -13 40 -20 55 -20c24 0 49 12 74 36l30 -29c-34 -46 -70 -69 -109 -69c-24 0 -47 7 -69 20c-21 14 -39 21 -54 21c-24 0 -49 -12 -74 -36z" />
    <glyph glyph-name="ograve" unicode="&#xf2;" horiz-adv-x="568" 
d="M29 207c0 85 23 154 70 209c55 64 125 96 210 96c120 0 191 -82 191 -215c0 -85 -23 -154 -70 -209c-55 -64 -125 -96 -210 -96c-120 0 -191 82 -191 215zM298 454c-59 0 -109 -25 -150 -75c-36 -44 -54 -99 -54 -166c0 -99 46 -163 137 -163c59 0 109 25 150 75
c36 44 54 99 54 166c0 99 -46 163 -137 163zM245 700h93l43 -140h-51z" />
    <glyph glyph-name="oacute" unicode="&#xf3;" horiz-adv-x="568" 
d="M29 207c0 85 23 154 70 209c55 64 125 96 210 96c120 0 191 -82 191 -215c0 -85 -23 -154 -70 -209c-55 -64 -125 -96 -210 -96c-120 0 -191 82 -191 215zM298 454c-59 0 -109 -25 -150 -75c-36 -44 -54 -99 -54 -166c0 -99 46 -163 137 -163c59 0 109 25 150 75
c36 44 54 99 54 166c0 99 -46 163 -137 163zM315 560h-56l97 140h95z" />
    <glyph glyph-name="ocircumflex" unicode="&#xf4;" horiz-adv-x="568" 
d="M29 207c0 85 23 154 70 209c55 64 125 96 210 96c120 0 191 -82 191 -215c0 -85 -23 -154 -70 -209c-55 -64 -125 -96 -210 -96c-120 0 -191 82 -191 215zM298 454c-59 0 -109 -25 -150 -75c-36 -44 -54 -99 -54 -166c0 -99 46 -163 137 -163c59 0 109 25 150 75
c36 44 54 99 54 166c0 99 -46 163 -137 163zM242 566h-77l164 151h24l120 -151h-72l-68 89z" />
    <glyph glyph-name="otilde" unicode="&#xf5;" horiz-adv-x="568" 
d="M29 207c0 85 23 154 70 209c55 64 125 96 210 96c120 0 191 -82 191 -215c0 -85 -23 -154 -70 -209c-55 -64 -125 -96 -210 -96c-120 0 -191 82 -191 215zM298 454c-59 0 -109 -25 -150 -75c-36 -44 -54 -99 -54 -166c0 -99 46 -163 137 -163c59 0 109 25 150 75
c36 44 54 99 54 166c0 99 -46 163 -137 163zM205 595l-30 29c34 46 70 69 109 69c24 0 47 -7 68 -21c22 -13 40 -20 55 -20c24 0 49 12 74 36l30 -29c-34 -46 -70 -69 -109 -69c-24 0 -47 7 -69 20c-21 14 -39 21 -54 21c-24 0 -49 -12 -74 -36z" />
    <glyph glyph-name="odieresis" unicode="&#xf6;" horiz-adv-x="568" 
d="M29 207c0 85 23 154 70 209c55 64 125 96 210 96c120 0 191 -82 191 -215c0 -85 -23 -154 -70 -209c-55 -64 -125 -96 -210 -96c-120 0 -191 82 -191 215zM298 454c-59 0 -109 -25 -150 -75c-36 -44 -54 -99 -54 -166c0 -99 46 -163 137 -163c59 0 109 25 150 75
c36 44 54 99 54 166c0 99 -46 163 -137 163zM219 650c0 28 21 50 49 50s49 -22 49 -50c0 -27 -21 -48 -49 -48s-49 21 -49 48zM373 650c0 28 21 50 48 50c28 0 50 -22 50 -50c0 -27 -22 -48 -50 -48c-27 0 -48 21 -48 48z" />
    <glyph glyph-name="divide" unicode="&#xf7;" horiz-adv-x="555" 
d="M279 83c-31 0 -51 22 -51 51s22 51 51 51s51 -22 51 -51s-22 -51 -51 -51zM279 449c-31 0 -51 22 -51 51s22 51 51 51s51 -22 51 -51s-22 -51 -51 -51zM485 289h-410v56h410v-56z" />
    <glyph glyph-name="oslash" unicode="&#xf8;" horiz-adv-x="568" 
d="M29 207c0 85 23 154 70 209c55 64 125 96 210 96c53 0 97 -16 130 -47l75 77l40 -39l-81 -83c18 -36 27 -77 27 -123c0 -85 -23 -154 -70 -209c-55 -64 -125 -96 -210 -96c-51 0 -93 14 -126 43l-71 -73l-39 39l75 77c-20 34 -30 77 -30 129zM298 454
c-59 0 -109 -25 -150 -75c-36 -44 -54 -99 -54 -166c0 -31 5 -60 15 -85l284 290c-23 24 -54 36 -95 36zM435 291c0 29 -4 55 -12 78l-283 -288c23 -21 53 -31 91 -31c59 0 109 25 150 75c36 44 54 99 54 166z" />
    <glyph glyph-name="ugrave" unicode="&#xf9;" horiz-adv-x="569" 
d="M59 158l67 346h63l-65 -338c-3 -18 -5 -31 -5 -40c0 -51 26 -76 78 -76c41 0 83 22 125 67s69 101 82 166l42 221h63l-97 -504h-63l21 105c-21 -33 -50 -61 -86 -82c-35 -21 -71 -31 -108 -31c-76 0 -122 43 -122 122c0 9 2 24 5 44zM248 700h93l43 -140h-51z" />
    <glyph glyph-name="uacute" unicode="&#xfa;" horiz-adv-x="569" 
d="M59 158l67 346h63l-65 -338c-3 -18 -5 -31 -5 -40c0 -51 26 -76 78 -76c41 0 83 22 125 67s69 101 82 166l42 221h63l-97 -504h-63l21 105c-21 -33 -50 -61 -86 -82c-35 -21 -71 -31 -108 -31c-76 0 -122 43 -122 122c0 9 2 24 5 44zM329 560h-56l97 140h95z" />
    <glyph glyph-name="ucircumflex" unicode="&#xfb;" horiz-adv-x="569" 
d="M59 158l67 346h63l-65 -338c-3 -18 -5 -31 -5 -40c0 -51 26 -76 78 -76c41 0 83 22 125 67s69 101 82 166l42 221h63l-97 -504h-63l21 105c-21 -33 -50 -61 -86 -82c-35 -21 -71 -31 -108 -31c-76 0 -122 43 -122 122c0 9 2 24 5 44zM245 566h-77l164 151h24l120 -151
h-72l-68 89z" />
    <glyph glyph-name="udieresis" unicode="&#xfc;" horiz-adv-x="569" 
d="M59 158l67 346h63l-65 -338c-3 -18 -5 -31 -5 -40c0 -51 26 -76 78 -76c41 0 83 22 125 67s69 101 82 166l42 221h63l-97 -504h-63l21 105c-21 -33 -50 -61 -86 -82c-35 -21 -71 -31 -108 -31c-76 0 -122 43 -122 122c0 9 2 24 5 44zM208 650c0 28 21 50 49 50
s49 -22 49 -50c0 -27 -21 -48 -49 -48s-49 21 -49 48zM362 650c0 28 21 50 48 50c28 0 50 -22 50 -50c0 -27 -22 -48 -50 -48c-27 0 -48 21 -48 48z" />
    <glyph glyph-name="yacute" unicode="&#xfd;" horiz-adv-x="452" 
d="M167 93l219 411h73l-388 -708h-67l113 207l-81 501h67zM261 560h-56l97 140h95z" />
    <glyph glyph-name="thorn" unicode="&#xfe;" horiz-adv-x="591" 
d="M-3 -204l177 912h63l-50 -268c36 43 100 72 160 72c115 0 176 -77 176 -208c0 -89 -24 -164 -73 -223c-48 -59 -115 -89 -202 -89c-61 0 -116 39 -133 83l-55 -279h-63zM258 50c63 0 112 24 147 72s53 105 53 171c0 105 -45 161 -125 161c-55 0 -101 -27 -138 -80
s-56 -112 -56 -176c0 -99 44 -148 119 -148z" />
    <glyph glyph-name="ydieresis" unicode="&#xff;" horiz-adv-x="452" 
d="M167 93l219 411h73l-388 -708h-67l113 207l-81 501h67zM128 650c0 28 21 50 49 50s49 -22 49 -50c0 -27 -21 -48 -49 -48s-49 21 -49 48zM282 650c0 28 21 50 48 50c28 0 50 -22 50 -50c0 -27 -22 -48 -50 -48c-27 0 -48 21 -48 48z" />
    <glyph glyph-name="dotlessi" unicode="&#x131;" horiz-adv-x="259" 
d="M34 0l97 504h63l-98 -504h-62z" />
    <glyph glyph-name="Lslash" unicode="&#x141;" horiz-adv-x="502" 
d="M108 342l70 358h67l-63 -321l141 70l17 -49l-170 -85l-49 -253h320l-13 -62h-386l54 278l-80 -40l-18 49z" />
    <glyph glyph-name="lslash" unicode="&#x142;" horiz-adv-x="318" 
d="M126 315l-86 -43l-16 49l114 58l65 329h63l-58 -295l85 43l18 -49l-116 -58l-68 -349h-63z" />
    <glyph glyph-name="OE" unicode="&#x152;" horiz-adv-x="1043" 
d="M635 573l25 127h390l-13 -62h-323l-45 -234h263l-12 -62h-263l-54 -280h333l-13 -62h-399l21 110l-11 -12c-68 -71 -151 -106 -250 -106c-71 0 -129 25 -174 75c-44 50 -66 118 -66 203c0 125 47 247 130 332c68 71 151 106 249 106c96 0 173 -50 212 -135zM411 646
c-83 0 -153 -35 -209 -104c-57 -71 -89 -173 -89 -270c0 -137 68 -218 183 -218c84 0 154 35 210 104c57 71 89 171 89 268c0 139 -69 220 -184 220z" />
    <glyph glyph-name="oe" unicode="&#x153;" horiz-adv-x="947" 
d="M881 280l-5 -28h-375c-5 -16 -7 -35 -7 -56c0 -91 44 -146 125 -146c68 0 125 35 170 104l52 -23c-67 -103 -136 -139 -233 -139c-81 0 -138 41 -165 113c-53 -75 -127 -113 -223 -113c-120 0 -191 82 -191 215c0 85 23 154 70 209c55 64 125 96 210 96
c89 0 152 -45 177 -125c51 76 130 125 223 125c112 0 178 -72 178 -181c0 -14 -2 -31 -6 -51zM298 454c-59 0 -109 -25 -150 -75c-36 -44 -54 -99 -54 -166c0 -99 46 -163 137 -163c59 0 109 25 150 75c36 44 54 99 54 166c0 99 -46 163 -137 163zM698 454
c-79 0 -145 -59 -180 -144h306c0 96 -42 144 -126 144z" />
    <glyph glyph-name="Scaron" unicode="&#x160;" horiz-adv-x="521" 
d="M477 594l-61 -34c-18 57 -52 86 -101 86c-71 0 -116 -48 -116 -123c0 -29 10 -54 34 -75c24 -20 38 -30 74 -50c87 -49 135 -97 135 -173c0 -70 -18 -124 -54 -163c-43 -47 -105 -70 -184 -70c-51 0 -94 18 -129 54s-52 81 -52 135l60 30c0 -43 12 -80 35 -111
c24 -31 57 -46 98 -46c96 0 157 55 157 151c0 25 -6 47 -18 66c-23 39 -44 50 -95 78c-77 43 -128 90 -128 170c0 113 78 189 195 189c77 0 130 -50 150 -114zM433 913h77l-164 -151h-24l-120 151h72l68 -89z" />
    <glyph glyph-name="scaron" unicode="&#x161;" horiz-adv-x="448" 
d="M253 512c60 0 105 -26 135 -78l-49 -36c-21 37 -52 56 -95 56c-49 0 -86 -31 -86 -79c0 -23 7 -39 26 -54c19 -13 28 -18 57 -31c77 -35 115 -80 115 -135c0 -108 -66 -163 -175 -163c-47 0 -85 14 -114 43s-45 62 -49 97l60 28c15 -73 53 -110 112 -110
c57 0 99 33 99 89c0 18 -5 34 -15 47c-19 28 -38 36 -77 53c-67 28 -104 63 -104 127c0 92 61 146 160 146zM371 717h77l-164 -151h-24l-120 151h72l68 -89z" />
    <glyph glyph-name="Ydieresis" unicode="&#x178;" horiz-adv-x="472" 
d="M120 0l60 304l-127 396h76l95 -331l229 331h79l-285 -396l-60 -304h-67zM181 846c0 28 21 50 49 50s49 -22 49 -50c0 -27 -21 -48 -49 -48s-49 21 -49 48zM335 846c0 28 21 50 48 50c28 0 50 -22 50 -50c0 -27 -22 -48 -50 -48c-27 0 -48 21 -48 48z" />
    <glyph glyph-name="Zcaron" unicode="&#x17d;" horiz-adv-x="556" 
d="M445 638h-333l12 62h427l-7 -32l-450 -606h350l-13 -62h-446l7 32zM442 913h77l-164 -151h-24l-120 151h72l68 -89z" />
    <glyph glyph-name="zcaron" unicode="&#x17e;" horiz-adv-x="463" 
d="M333 446h-244l11 58h332l-6 -34l-325 -412h259l-11 -58h-350l5 30zM378 717h77l-164 -151h-24l-120 151h72l68 -89z" />
    <glyph glyph-name="florin" unicode="&#x192;" horiz-adv-x="434" 
d="M224 446h-90l12 58h90l6 32c23 124 83 172 186 172c26 0 46 -4 61 -13l-24 -57c-15 8 -32 12 -50 12c-59 0 -95 -35 -109 -104l-8 -42h122l-12 -58h-122l-94 -486c-24 -125 -81 -172 -182 -172c-29 0 -50 4 -65 13l24 57c16 -8 33 -12 50 -12c63 0 94 32 109 104z" />
    <glyph glyph-name="circumflex" unicode="&#x2c6;" horiz-adv-x="383" 
d="M151 566h-77l164 151h24l120 -151h-72l-68 89z" />
    <glyph glyph-name="caron" unicode="&#x2c7;" horiz-adv-x="359" 
d="M321 717h77l-164 -151h-24l-120 151h72l68 -89z" />
    <glyph glyph-name="breve" unicode="&#x2d8;" horiz-adv-x="250" 
d="M236 700h51c-15 -73 -57 -109 -126 -109c-55 0 -87 33 -87 86c0 9 1 16 3 23h51c-1 -5 -2 -10 -2 -14c0 -30 15 -45 45 -45c36 0 58 20 65 59z" />
    <glyph glyph-name="dotaccent" unicode="&#x2d9;" horiz-adv-x="259" 
d="M151 612c-19 20 -19 54 0 73c20 20 54 20 73 0c20 -19 20 -53 0 -73c-19 -19 -53 -19 -73 0z" />
    <glyph glyph-name="ring" unicode="&#x2da;" horiz-adv-x="216" 
d="M63 653c0 55 42 98 97 98c56 0 97 -42 97 -98c0 -53 -41 -94 -97 -94c-55 0 -97 41 -97 94zM160 602c31 0 51 21 51 52c0 32 -20 54 -51 54c-29 0 -51 -23 -51 -54s22 -52 51 -52z" />
    <glyph glyph-name="ogonek" unicode="&#x2db;" horiz-adv-x="227" 
d="M47 -60h55l-32 -23c-16 -12 -41 -41 -41 -62c0 -19 9 -28 28 -28c18 0 40 14 65 42l33 -31c-45 -49 -74 -67 -119 -67c-43 0 -67 23 -67 63c0 44 29 73 78 106z" />
    <glyph glyph-name="tilde" unicode="&#x2dc;" horiz-adv-x="380" 
d="M103 595l-30 29c34 46 70 69 109 69c24 0 47 -7 68 -21c22 -13 40 -20 55 -20c24 0 49 12 74 36l30 -29c-34 -46 -70 -69 -109 -69c-24 0 -47 7 -69 20c-21 14 -39 21 -54 21c-24 0 -49 -12 -74 -36z" />
    <glyph glyph-name="hungarumlaut" unicode="&#x2dd;" horiz-adv-x="357" 
d="M113 560h-56l97 140h95zM263 560h-56l97 140h95z" />
    <glyph glyph-name="uni2206" unicode="&#x394;" horiz-adv-x="641" 
d="M545 0h-538v16l236 684h66l236 -684v-16zM463 58l-187 549l-187 -549h374z" />
    <glyph glyph-name="uni2206" unicode="&#x2206;" horiz-adv-x="641" 
d="M545 0h-538v16l236 684h66l236 -684v-16zM463 58l-187 549l-187 -549h374z" />
    <glyph glyph-name="uni2126" unicode="&#x3a9;" horiz-adv-x="686" 
d="M292 0h-210v56h138c-7 11 -14 22 -41 81c-13 30 -25 59 -36 88c-10 29 -19 64 -28 103c-9 40 -13 77 -13 112c0 79 22 144 65 193c44 50 103 75 176 75s132 -25 175 -75c44 -49 66 -114 66 -193c0 -105 -34 -223 -102 -354c-11 -20 -16 -30 -16 -30h138v-56h-210v19
c7 12 14 24 41 88c13 32 25 64 35 95c11 32 20 70 29 114s13 85 13 124c0 131 -68 212 -169 212s-169 -81 -169 -212c0 -118 34 -247 101 -388c11 -22 17 -33 17 -33v-19z" />
    <glyph glyph-name="uni2126" unicode="&#x2126;" horiz-adv-x="686" 
d="M292 0h-210v56h138c-7 11 -14 22 -41 81c-13 30 -25 59 -36 88c-10 29 -19 64 -28 103c-9 40 -13 77 -13 112c0 79 22 144 65 193c44 50 103 75 176 75s132 -25 175 -75c44 -49 66 -114 66 -193c0 -105 -34 -223 -102 -354c-11 -20 -16 -30 -16 -30h138v-56h-210v19
c7 12 14 24 41 88c13 32 25 64 35 95c11 32 20 70 29 114s13 85 13 124c0 131 -68 212 -169 212s-169 -81 -169 -212c0 -118 34 -247 101 -388c11 -22 17 -33 17 -33v-19z" />
    <glyph glyph-name="pi" unicode="&#x3c0;" horiz-adv-x="560" 
d="M134 448h-89v56h481v-56h-89v-448h-62v448h-179v-448h-62v448z" />
    <glyph glyph-name="uni2000" unicode="&#x2000;" horiz-adv-x="473" 
 />
    <glyph glyph-name="uni2001" unicode="&#x2001;" horiz-adv-x="947" 
 />
    <glyph glyph-name="uni2002" unicode="&#x2002;" horiz-adv-x="473" 
 />
    <glyph glyph-name="uni2003" unicode="&#x2003;" horiz-adv-x="947" 
 />
    <glyph glyph-name="uni2004" unicode="&#x2004;" horiz-adv-x="315" 
 />
    <glyph glyph-name="uni2005" unicode="&#x2005;" horiz-adv-x="236" 
 />
    <glyph glyph-name="uni2006" unicode="&#x2006;" horiz-adv-x="157" 
 />
    <glyph glyph-name="uni2007" unicode="&#x2007;" horiz-adv-x="157" 
 />
    <glyph glyph-name="uni2008" unicode="&#x2008;" horiz-adv-x="118" 
 />
    <glyph glyph-name="uni2009" unicode="&#x2009;" horiz-adv-x="189" 
 />
    <glyph glyph-name="uni200A" unicode="&#x200a;" horiz-adv-x="52" 
 />
    <glyph glyph-name="uni2010" unicode="&#x2010;" horiz-adv-x="479" 
d="M390 289h-329l11 56h329z" />
    <glyph glyph-name="uni2011" unicode="&#x2011;" horiz-adv-x="479" 
d="M390 289h-329l11 56h329z" />
    <glyph glyph-name="endash" unicode="&#x2013;" horiz-adv-x="535" 
d="M455 289h-395l11 56h395z" />
    <glyph glyph-name="emdash" unicode="&#x2014;" horiz-adv-x="729" 
d="M649 289h-589l11 56h589z" />
    <glyph glyph-name="quoteleft" unicode="&#x2018;" horiz-adv-x="234" 
d="M76 708h102l30 -184h-50z" />
    <glyph glyph-name="quoteright" unicode="&#x2019;" horiz-adv-x="226" 
d="M127 524h-51l96 184h105z" />
    <glyph glyph-name="quotesinglbase" unicode="&#x201a;" horiz-adv-x="314" 
d="M51 -14h-51l96 184h105z" />
    <glyph glyph-name="quotedblleft" unicode="&#x201c;" horiz-adv-x="395" 
d="M76 708h102l30 -184h-50zM237 708h102l30 -184h-50z" />
    <glyph glyph-name="quotedblright" unicode="&#x201d;" horiz-adv-x="390" 
d="M131 524h-51l96 184h105zM291 524h-51l96 184h105z" />
    <glyph glyph-name="quotedblbase" unicode="&#x201e;" horiz-adv-x="474" 
d="M51 -14h-51l96 184h105zM211 -14h-51l96 184h105z" />
    <glyph glyph-name="dagger" unicode="&#x2020;" horiz-adv-x="453" 
d="M211 448h-133l10 56h134l48 246h61l-48 -246h135l-10 -56h-136l-96 -498h-61z" />
    <glyph glyph-name="daggerdbl" unicode="&#x2021;" horiz-adv-x="453" 
d="M212 448h-134l10 56h134l48 246h61l-48 -246h135l-10 -56h-135l-39 -196h135l-10 -56h-135l-48 -246h-61l48 246h-133l10 56h133z" />
    <glyph glyph-name="bullet" unicode="&#x2022;" horiz-adv-x="313" 
d="M101 284c-25 25 -25 67 0 92s67 25 92 0s25 -67 0 -92s-67 -25 -92 0z" />
    <glyph glyph-name="ellipsis" unicode="&#x2026;" horiz-adv-x="756" 
d="M29 49c0 29 22 51 51 51s51 -22 51 -51s-22 -51 -51 -51s-51 20 -51 51zM276 49c0 44 56 69 87 36c33 -31 8 -87 -36 -87c-31 0 -51 20 -51 51zM523 49c0 29 22 51 51 51s51 -22 51 -51s-22 -51 -51 -51s-51 20 -51 51z" />
    <glyph glyph-name="uni202F" unicode="&#x202f;" horiz-adv-x="189" 
 />
    <glyph glyph-name="perthousand" unicode="&#x2030;" horiz-adv-x="1232" 
d="M70 526c0 49 15 92 46 127c33 37 78 55 136 55c73 0 132 -53 132 -138c0 -49 -15 -92 -46 -127c-33 -37 -78 -55 -136 -55c-73 0 -132 53 -132 138zM244 654c-67 0 -118 -49 -118 -120c0 -59 35 -92 84 -92c67 0 118 49 118 120c0 59 -35 92 -84 92zM450 130
c0 49 15 92 46 127c33 37 78 55 136 55c73 0 132 -53 132 -138c0 -49 -15 -92 -46 -127c-33 -37 -78 -55 -136 -55c-73 0 -132 53 -132 138zM624 258c-67 0 -118 -49 -118 -120c0 -59 35 -92 84 -92c67 0 118 49 118 120c0 59 -35 92 -84 92zM830 130c0 49 15 92 46 127
c33 37 78 55 136 55c73 0 132 -53 132 -138c0 -49 -15 -92 -46 -127c-33 -37 -78 -55 -136 -55c-73 0 -132 53 -132 138zM1004 258c-67 0 -118 -49 -118 -120c0 -59 35 -92 84 -92c67 0 118 49 118 120c0 59 -35 92 -84 92zM76 11l680 715l36 -37l-680 -715z" />
    <glyph glyph-name="guilsinglleft" unicode="&#x2039;" horiz-adv-x="378" 
d="M264 94l-224 195l12 48l297 189l-14 -75l-233 -144l175 -151z" />
    <glyph glyph-name="guilsinglright" unicode="&#x203a;" horiz-adv-x="378" 
d="M109 526l224 -195l-10 -44l-299 -193l14 75l230 145l-173 148z" />
    <glyph glyph-name="fraction" unicode="&#x2044;" horiz-adv-x="746" 
d="M15 11l680 715l36 -37l-680 -715z" />
    <glyph glyph-name="uni205F" unicode="&#x205f;" horiz-adv-x="236" 
 />
    <glyph glyph-name="uni2070" unicode="&#x2070;" horiz-adv-x="363" 
d="M233 704c68 0 116 -54 116 -149c0 -41 -6 -81 -19 -119c-12 -38 -33 -71 -62 -99c-29 -27 -65 -41 -106 -41c-68 0 -116 54 -116 149c0 41 6 81 18 119c13 38 34 71 63 98c29 28 65 42 106 42zM224 656c-26 0 -49 -12 -69 -35c-40 -47 -56 -111 -56 -170
c0 -71 24 -107 72 -107c26 0 49 12 69 35c40 47 56 111 56 170c0 71 -24 107 -72 107z" />
    <glyph glyph-name="uni2074" unicode="&#x2074;" horiz-adv-x="380" 
d="M250 300h-51l17 83h-176l3 17l219 300h65l-52 -269h52l-9 -48h-52zM262 626l-140 -195h103z" />
    <glyph glyph-name="uni2075" unicode="&#x2075;" horiz-adv-x="355" 
d="M44 407l49 8c0 -41 20 -71 63 -71c59 0 93 46 93 109c0 43 -19 64 -58 64c-31 0 -61 -14 -90 -43l-36 8l64 218h200l-10 -48h-156l-35 -115c21 19 46 28 77 28c64 0 100 -41 100 -106c0 -99 -60 -163 -155 -163c-61 0 -106 40 -106 111z" />
    <glyph glyph-name="uni2076" unicode="&#x2076;" horiz-adv-x="354" 
d="M223 559c59 0 98 -36 98 -105c0 -44 -15 -81 -45 -112c-29 -31 -66 -46 -110 -46c-61 0 -108 43 -108 110c0 36 14 72 42 109l145 189h60l-122 -155c9 7 22 10 40 10zM208 511c-55 0 -94 -40 -94 -99c0 -41 22 -68 61 -68c52 0 90 44 90 100c0 45 -19 67 -57 67z" />
    <glyph glyph-name="uni2077" unicode="&#x2077;" horiz-adv-x="310" 
d="M327 678l-228 -378h-53l211 352h-166l9 48h231z" />
    <glyph glyph-name="uni2078" unicode="&#x2078;" horiz-adv-x="317" 
d="M222 704c55 0 92 -40 92 -93c0 -45 -27 -81 -68 -96c32 -13 48 -41 48 -84c0 -85 -64 -135 -148 -135c-61 0 -104 42 -104 106c0 52 34 95 85 115c-20 12 -37 41 -37 73c0 67 56 114 132 114zM183 489c-49 0 -85 -35 -85 -80c0 -43 22 -65 57 -65c51 0 83 29 83 84
c0 41 -18 61 -55 61zM214 660c-41 0 -75 -27 -75 -68c0 -32 21 -55 54 -55c41 0 72 23 72 66c0 38 -17 57 -51 57z" />
    <glyph glyph-name="uni2079" unicode="&#x2079;" horiz-adv-x="354" 
d="M165 441c-59 0 -98 36 -98 105c0 44 15 81 44 112c30 31 67 46 111 46c61 0 108 -43 108 -110c0 -36 -14 -72 -42 -109l-145 -189h-60l122 155c-9 -7 -22 -10 -40 -10zM180 489c55 0 94 40 94 99c0 41 -22 68 -61 68c-52 0 -90 -44 -90 -100c0 -45 19 -67 57 -67z" />
    <glyph glyph-name="Euro" unicode="&#x20ac;" horiz-adv-x="588" 
d="M130 395h-87l40 56h61c53 171 152 257 297 257c83 0 138 -39 165 -116l-55 -27c-21 58 -61 87 -121 87c-103 0 -177 -67 -221 -201h252l-40 -56h-228l-18 -90h258l-40 -56h-223c0 -137 43 -201 143 -201c60 0 110 30 149 90l49 -30c-63 -84 -120 -116 -209 -116
c-133 0 -197 100 -197 257h-90l40 56h57z" />
    <glyph glyph-name="trademark" unicode="&#x2122;" horiz-adv-x="804" 
d="M200 656h-110l8 44h270l-8 -44h-110l-69 -356h-50zM367 300l77 400h53l64 -282l166 282h59l-77 -400h-50l57 295l-157 -258h-28l-57 258l-57 -295h-50z" />
    <glyph glyph-name="partialdiff" unicode="&#x2202;" horiz-adv-x="608" 
d="M176 560l-65 17c36 80 105 131 200 131c143 0 221 -125 221 -353c0 -66 -10 -126 -30 -180c-39 -107 -127 -183 -250 -183c-59 0 -106 20 -143 59s-55 91 -55 155c0 84 25 156 75 216c51 60 117 90 199 90c55 0 114 -24 138 -57c-12 119 -73 195 -162 195
c-55 0 -97 -30 -128 -90zM319 454c-61 0 -109 -25 -145 -74s-54 -107 -54 -172c0 -93 53 -158 132 -158c61 0 112 24 151 72c39 49 59 106 59 173c0 100 -54 159 -143 159z" />
    <glyph glyph-name="product" unicode="&#x220f;" horiz-adv-x="519" 
d="M145 0h-62v700h353v-700h-62v644h-229v-644z" />
    <glyph glyph-name="summation" unicode="&#x2211;" horiz-adv-x="556" 
d="M61 15l215 335l-215 335v15h416v-56h-322l183 -286v-16l-183 -286h322v-56h-416v15z" />
    <glyph glyph-name="minus" unicode="&#x2212;" horiz-adv-x="560" 
d="M466 289h-410l11 56h410z" />
    <glyph glyph-name="radical" unicode="&#x221a;" horiz-adv-x="519" 
d="M270 108l182 600h56l-215 -708h-47l-108 333h-94v56h133z" />
    <glyph glyph-name="infinity" unicode="&#x221e;" horiz-adv-x="880" 
d="M642 168c-73 0 -139 44 -198 133c-59 -89 -125 -133 -198 -133c-54 0 -98 18 -131 53s-49 81 -49 138s16 103 49 138s77 53 131 53c73 0 139 -44 198 -133c59 89 125 133 198 133c54 0 97 -18 130 -53s50 -81 50 -138s-17 -103 -50 -138s-76 -53 -130 -53zM259 224
c61 0 113 45 158 135c-45 90 -97 135 -158 135c-80 0 -131 -51 -131 -135s51 -135 131 -135zM629 224c80 0 131 51 131 135s-51 135 -131 135c-61 0 -113 -45 -158 -135c45 -90 97 -135 158 -135z" />
    <glyph glyph-name="integral" unicode="&#x222b;" horiz-adv-x="434" 
d="M128 -50l114 586c24 124 83 172 186 172c26 0 46 -4 61 -13l-24 -57c-15 8 -32 12 -50 12c-59 0 -95 -35 -109 -104l-114 -586c-24 -125 -81 -172 -182 -172c-29 0 -50 4 -65 13l24 57c16 -8 33 -12 50 -12c63 0 94 32 109 104z" />
    <glyph glyph-name="approxequal" unicode="&#x2248;" horiz-adv-x="528" 
d="M69 183l-28 39c43 51 87 76 133 76c27 0 55 -9 86 -27s59 -27 83 -27c37 0 70 14 99 43l28 -39c-43 -51 -87 -76 -133 -76c-27 0 -56 9 -87 27s-58 27 -82 27c-37 0 -70 -14 -99 -43zM69 383l-28 39c43 51 87 76 133 76c27 0 55 -9 86 -27s59 -27 83 -27
c37 0 70 14 99 43l28 -39c-43 -51 -87 -76 -133 -76c-27 0 -56 9 -87 27s-58 27 -82 27c-37 0 -70 -14 -99 -43z" />
    <glyph glyph-name="notequal" unicode="&#x2260;" horiz-adv-x="593" 
d="M296 365h-193v56h225l64 111l48 -28l-48 -83h98v-56h-130l-63 -110h193v-56h-225l-64 -111l-48 28l48 83h-98v56h130z" />
    <glyph glyph-name="lessequal" unicode="&#x2264;" horiz-adv-x="542" 
d="M428 188l-335 180v68l335 180v-62l-283 -152l283 -152v-62zM465 0h-409v56h409v-56z" />
    <glyph glyph-name="greaterequal" unicode="&#x2265;" horiz-adv-x="542" 
d="M99 616l335 -180v-68l-335 -180v62l283 152l-283 152v62zM62 56h409v-56h-409v56z" />
    <glyph glyph-name="lozenge" unicode="&#x25ca;" horiz-adv-x="502" 
d="M282 0h-62l-180 350l180 350h62l180 -350zM103 350l148 -288l148 288l-148 288z" />
    <glyph glyph-name="CR" horiz-adv-x="222" 
 />
    <glyph glyph-name="apple" horiz-adv-x="794" 
d="M693 617v-595c0 -12 -10 -22 -22 -22c-2 0 -4 0 -7 1l-267 77l-267 -77c-3 -1 -5 -1 -7 -1c-12 0 -22 10 -22 22v595c0 11 5 19 16 22l270 78c8 3 12 3 20 0l270 -78c11 -3 16 -11 16 -22zM375 366v303l-230 -67c4 -63 28 -116 71 -161c44 -45 97 -70 159 -75zM649 602
l-230 67v-303c62 5 115 30 158 75c44 45 68 98 72 161zM144 463v-412l231 67v204c-97 8 -183 61 -231 141zM419 118l231 -67v412c-49 -80 -134 -133 -231 -141v-204z" />
    <glyph glyph-name="No" horiz-adv-x="1253" 
d="M484 105l116 595h67l-137 -700h-77l-227 593l-117 -593h-67l137 700h77zM1081 0h-409l11 56h409zM714 403c0 85 23 154 70 209c55 64 125 96 210 96c120 0 191 -82 191 -215c0 -85 -23 -154 -70 -209c-55 -64 -125 -96 -210 -96c-120 0 -191 82 -191 215zM983 650
c-59 0 -109 -25 -150 -75c-36 -44 -54 -99 -54 -166c0 -99 46 -163 137 -163c59 0 109 25 150 75c36 44 54 99 54 166c0 99 -46 163 -137 163z" />
    <glyph glyph-name="zero.tn" 
d="M355 708c121 0 185 -89 185 -240c0 -108 -23 -216 -70 -313s-135 -163 -246 -163c-123 0 -185 89 -185 240c0 108 23 216 70 313s135 163 246 163zM344 652c-83 0 -150 -63 -186 -150c-36 -85 -54 -178 -54 -255c0 -128 44 -199 131 -199c83 0 150 64 186 149
c36 87 54 179 54 256c0 128 -44 199 -131 199z" />
    <glyph glyph-name="one.tn" 
d="M202 597l182 103h17l-137 -700h-63l116 594l-130 -73z" />
    <glyph glyph-name="two.tn" 
d="M432 0h-403l4 23l312 333c29 31 50 54 62 69c25 31 49 75 49 120c0 68 -34 107 -99 107c-72 0 -127 -55 -150 -142l-57 12c27 117 103 186 218 186c91 0 153 -60 153 -148c0 -43 -9 -82 -28 -116c-19 -33 -50 -73 -94 -119l-255 -269h299z" />
    <glyph glyph-name="three.tn" 
d="M65 192l60 8c8 -101 52 -152 132 -152c111 0 164 73 164 190c0 88 -47 143 -120 143c-29 0 -54 -6 -75 -18l-26 38l219 243h-257l11 56h361l-3 -17l-232 -251c7 2 16 3 26 3c89 0 159 -62 159 -186c0 -165 -79 -257 -227 -257c-119 0 -189 77 -192 200z" />
    <glyph glyph-name="four.tn" 
d="M360 0h-63l32 161h-302l3 17l390 522h77l-94 -483h90l-11 -56h-90zM416 612l-290 -395h214z" />
    <glyph glyph-name="five.tn" 
d="M50 184l65 9c0 -85 44 -145 120 -145c58 0 103 23 135 68c33 45 49 99 49 161c0 87 -41 131 -124 131c-27 0 -57 -10 -88 -29s-56 -40 -75 -65l-43 10l108 376h325l-11 -56h-267l-70 -236c36 37 82 56 137 56c109 0 171 -64 171 -185c0 -87 -22 -156 -66 -209
c-43 -52 -106 -78 -188 -78c-50 0 -92 17 -127 50c-34 34 -51 81 -51 142z" />
    <glyph glyph-name="six.tn" 
d="M316 448c107 0 170 -67 170 -188c0 -77 -24 -141 -71 -192s-108 -76 -184 -76c-107 0 -172 75 -172 182c0 72 23 137 69 196l266 338h69l-212 -277c17 11 38 17 65 17zM305 392c-52 0 -96 -21 -131 -64s-52 -92 -52 -149c0 -80 44 -131 120 -131c54 0 98 20 131 61
s50 89 50 145c0 92 -43 138 -118 138z" />
    <glyph glyph-name="seven.tn" 
d="M561 680l-396 -680h-73l377 644h-303l11 56h388z" />
    <glyph glyph-name="eight.tn" 
d="M370 708c96 0 155 -62 155 -157c0 -87 -47 -155 -119 -182c44 -20 76 -69 76 -145c0 -74 -21 -130 -64 -169c-55 -49 -101 -63 -181 -63c-50 0 -92 17 -126 50c-33 33 -50 76 -50 129c0 104 48 173 145 208c-42 31 -63 73 -63 126c0 64 26 117 77 158c37 30 87 45 150 45
zM299 344c-49 0 -91 -16 -125 -47c-33 -31 -50 -71 -50 -122c0 -75 52 -127 124 -127c107 0 174 68 174 168c0 81 -47 128 -123 128zM360 654c-43 0 -80 -14 -110 -41c-29 -27 -44 -63 -44 -106c0 -64 37 -107 104 -107c43 0 79 14 108 41s44 63 44 106
c0 68 -37 107 -102 107z" />
    <glyph glyph-name="nine.tn" 
d="M267 252c-107 0 -170 67 -170 188c0 77 23 140 70 191s109 77 185 77c107 0 172 -75 172 -182c0 -72 -23 -137 -69 -196l-266 -338h-69l212 277c-17 -11 -38 -17 -65 -17zM278 308c52 0 95 21 130 64s53 92 53 149c0 80 -44 131 -120 131c-54 0 -98 -20 -131 -61
s-50 -89 -50 -145c0 -92 43 -138 118 -138z" />
    </font>
</defs>
</svg>
